<?xml version="1.0" standalone="no"?>
<!DOCTYPE svg PUBLIC "-//W3C//DTD SVG 1.1//EN" "http://www.w3.org/Graphics/SVG/1.1/DTD/svg11.dtd" >
<svg xmlns="http://www.w3.org/2000/svg">
<metadata>Generated by IcoMoon</metadata>
<defs>
<font id="untiled-ui" horiz-adv-x="1024">
<font-face units-per-em="1024" ascent="960" descent="-64" />
<missing-glyph horiz-adv-x="1024" />
<glyph unicode="&#x20;" horiz-adv-x="512" d="" />
<glyph unicode="&#xe900;" glyph-name="webcam-02" d="M682.667-42.666h-341.333c-23.552 0-42.667 19.072-42.667 42.667s19.115 42.667 42.667 42.667h341.333c23.595 0 42.667-19.072 42.667-42.667s-19.072-42.667-42.667-42.667zM512 85.334c-223.488 0-405.333 181.845-405.333 405.333s181.845 405.333 405.333 405.333 405.333-181.845 405.333-405.333-181.845-405.333-405.333-405.333zM512 810.667c-176.469 0-320-143.531-320-320s143.531-320 320-320 320 143.531 320 320-143.531 320-320 320zM512 311.979c-98.517 0-178.688 80.171-178.688 178.688s80.128 178.688 178.688 178.688c98.517 0 178.688-80.128 178.688-178.688 0-98.517-80.171-178.688-178.688-178.688zM512 584.022c-51.456 0-93.355-41.856-93.355-93.355s41.856-93.355 93.355-93.355 93.355 41.856 93.355 93.355-41.899 93.355-93.355 93.355z" />
<glyph unicode="&#xe901;" glyph-name="wifi" d="M512.427 64c-23.552 0-42.88 19.072-42.88 42.667s18.901 42.667 42.453 42.667h0.427c23.595 0 42.667-19.072 42.667-42.667s-19.115-42.667-42.667-42.667zM352.256 221.355c-12.501 0-24.917 5.504-33.365 16.043-14.72 18.389-11.691 45.269 6.699 59.989 52.693 42.069 118.869 65.28 186.411 65.28 67.456 0 131.115-21.973 184.107-63.488 18.56-14.549 21.803-41.387 7.253-59.904s-41.344-21.803-59.904-7.253c-76.16 59.776-188.843 59.264-264.576-1.28-7.893-6.315-17.28-9.387-26.624-9.387zM201.899 373.632c-11.819 0-23.595 4.864-32.043 14.464-15.573 17.664-13.867 44.629 3.797 60.245 93.483 82.304 213.632 127.659 338.347 127.659s244.864-45.355 338.304-127.701c17.664-15.573 19.371-42.539 3.797-60.203-15.531-17.792-42.496-19.371-60.203-3.797-77.867 68.565-177.963 106.368-281.899 106.368s-204.032-37.803-281.899-106.368c-8.107-7.168-18.176-10.667-28.203-10.667zM973.099 524.758c-10.283 0-20.608 3.712-28.843 11.221-118.229 108.373-271.701 168.021-432.256 168.021-160.512 0-314.027-59.648-432.256-168.021-17.408-15.915-44.416-14.677-60.288 2.645-15.915 17.365-14.763 44.373 2.645 60.288 133.973 122.795 307.968 190.421 489.899 190.421s355.925-67.627 489.899-190.421c17.365-15.915 18.56-42.923 2.645-60.288-8.405-9.173-19.925-13.867-31.445-13.867z" />
<glyph unicode="&#xe902;" glyph-name="wifi-off" d="M896-0c-10.923 0-21.845 4.181-30.165 12.501l-214.699 214.699c-2.645 1.28-5.248 2.901-7.68 4.779-7.339 5.76-14.933 10.965-22.784 15.659-70.741 41.899-164.352 38.315-232.021-9.813-1.024-0.725-2.133-1.408-3.2-2.048-2.219-1.664-4.437-3.328-6.571-5.077-18.389-14.72-45.269-11.691-59.989 6.699s-11.691 45.269 6.699 59.989c23.765 18.944 50.261 34.133 78.379 45.013 19.584 7.68 39.979 13.184 60.843 16.512 16.768 2.645 33.664 4.267 50.859 3.755l-113.707 113.749c-63.317-16.896-122.368-48.469-171.861-92.075-17.707-15.616-44.629-13.909-60.245 3.797-15.573 17.707-13.867 44.629 3.797 60.245 47.275 41.643 101.803 74.155 160.427 95.915l-97.621 97.536c-57.131-27.264-109.739-62.805-156.715-105.856-17.408-15.915-44.416-14.763-60.288 2.645-15.915 17.365-14.763 44.373 2.645 60.288 45.824 41.984 96.384 77.653 150.869 106.496l-75.093 75.136c-16.683 16.683-16.683 43.648 0 60.331s43.648 16.683 60.331 0l768-768c16.683-16.683 16.683-43.648 0-60.331-8.363-8.363-19.285-12.544-30.208-12.544zM512.427 64c-23.552 0-42.88 19.072-42.88 42.667s18.901 42.667 42.453 42.667h0.427c23.595 0 42.667-19.072 42.667-42.667s-19.115-42.667-42.667-42.667zM814.037 381.867c-9.6 0-19.285 3.243-27.264 9.856-43.307 36.053-92.501 62.805-146.176 79.531-22.485 6.997-35.072 30.933-28.075 53.419 7.040 22.485 31.019 35.115 53.419 28.032 64.469-20.053 123.477-52.139 175.403-95.403 18.133-15.061 20.565-41.941 5.504-60.075-8.405-10.112-20.565-15.36-32.811-15.36zM963.413 533.334c-10.027 0-20.096 3.499-28.203 10.667-134.912 118.912-314.965 176.043-495.317 155.819-23.296-2.56-44.544 14.208-47.189 37.589s14.208 44.544 37.589 47.189c204.075 23.040 408.405-41.771 561.323-176.597 17.664-15.573 19.371-42.539 3.797-60.203-8.405-9.557-20.224-14.464-32-14.464z" />
<glyph unicode="&#xe903;" glyph-name="wind-01" d="M307.072 85.206c-33.664 0-68.608 4.267-105.344 14.592-36.224 10.24-87.253 30.336-89.429 31.147-21.931 8.661-32.683 33.451-24.021 55.381 8.661 21.888 33.451 32.512 55.339 24.021 0.469-0.213 49.237-19.413 81.237-28.459 96.896-27.392 182.997 0.213 274.091 29.355 99.115 31.744 201.685 64.512 323.243 30.251 36.224-10.24 87.253-30.336 89.429-31.147 21.931-8.661 32.683-33.451 24.021-55.381-8.661-21.888-33.365-32.597-55.381-24.021-0.512 0.213-49.195 19.413-81.237 28.459-96.939 27.349-182.997-0.213-274.091-29.355-69.12-22.187-140.032-44.843-217.856-44.843zM307.072 341.206c-33.664 0-68.608 4.267-105.344 14.592-36.224 10.24-87.253 30.336-89.429 31.147-21.931 8.661-32.683 33.451-24.021 55.381 8.661 21.888 33.451 32.597 55.339 24.021 0.469-0.171 49.237-19.371 81.237-28.416 96.896-27.349 182.997 0.171 274.048 29.355 99.243 31.701 201.771 64.427 323.285 30.208 36.224-10.197 87.253-30.293 89.429-31.147 21.931-8.661 32.683-33.408 24.021-55.339-8.661-21.888-33.365-32.597-55.381-24.021-0.512 0.213-49.195 19.371-81.237 28.416-96.811 27.264-182.955-0.256-274.091-29.355-69.12-22.187-140.032-44.843-217.856-44.843zM307.115 597.248c-33.664 0-68.651 4.267-105.344 14.592-36.224 10.197-87.253 30.293-89.429 31.147-21.931 8.619-32.683 33.408-24.021 55.339 8.619 21.931 33.451 32.597 55.339 24.021 0.469-0.171 49.195-19.371 81.237-28.416 96.896-27.307 182.997 0.213 274.091 29.355 99.115 31.701 201.685 64.512 323.243 30.208 36.224-10.197 87.253-30.293 89.429-31.147 21.931-8.661 32.683-33.408 24.021-55.339s-33.365-32.64-55.381-24.021c-0.512 0.171-49.195 19.371-81.237 28.416-96.768 27.221-182.955-0.256-274.048-29.397-69.205-22.101-140.075-44.757-217.899-44.757z" />
<glyph unicode="&#xe904;" glyph-name="wind-02" d="M597.333 42.667c-36.352 0-71.125 15.531-95.36 42.667-15.701 17.579-14.208 44.544 3.328 60.245s44.544 14.208 60.245-3.328c8.192-9.216 19.499-14.251 31.787-14.251 23.552 0 42.667 19.115 42.667 42.667s-19.115 42.667-42.667 42.667h-512c-23.552 0-42.667 19.072-42.667 42.667s19.115 42.667 42.667 42.667h512c70.571 0 128-57.429 128-128s-57.429-128-128-128zM810.667 384h-725.333c-23.552 0-42.667 19.072-42.667 42.667 0 23.552 19.115 42.667 42.667 42.667h725.333c47.061 0 85.333 38.272 85.333 85.333s-38.272 85.333-85.333 85.333c-24.235 0-47.403-10.368-63.616-28.459-15.787-17.621-42.752-19.072-60.245-3.328-17.536 15.701-19.029 42.667-3.328 60.245 32.341 36.139 78.72 56.875 127.189 56.875 94.123 0 170.667-76.544 170.667-170.667s-76.544-170.667-170.667-170.667zM469.333 554.667h-384c-23.552 0-42.667 19.115-42.667 42.667s19.115 42.667 42.667 42.667h384c23.509 0 42.667 19.157 42.667 42.667s-19.157 42.667-42.667 42.667c-12.331 0-23.595-5.035-31.829-14.208-15.701-17.579-42.667-19.072-60.245-3.328-17.536 15.701-19.029 42.667-3.328 60.203 24.277 27.136 59.008 42.667 95.403 42.667 70.571 0 128-57.429 128-128s-57.429-128-128-128z" />
<glyph unicode="&#xe905;" glyph-name="wind-03" d="M554.667-0c-48.469 0-94.848 20.693-127.189 56.875-15.701 17.536-14.208 44.501 3.328 60.245 17.493 15.744 44.544 14.208 60.245-3.328 16.171-18.091 39.381-28.459 63.616-28.459 47.061 0 85.333 38.272 85.333 85.333s-38.272 85.333-85.333 85.333h-469.333c-23.552 0-42.667 19.072-42.667 42.667s19.115 42.667 42.667 42.667h469.333c94.123 0 170.667-76.544 170.667-170.667s-76.544-170.667-170.667-170.667zM810.667 405.334h-256c-23.595 0-42.667 19.072-42.667 42.667 0 23.552 19.072 42.667 42.667 42.667h256c47.061 0 85.333 38.272 85.333 85.333s-38.272 85.333-85.333 85.333c-24.235 0-47.403-10.368-63.616-28.459-15.787-17.621-42.752-19.072-60.245-3.328-17.536 15.701-19.029 42.667-3.328 60.245 32.341 36.139 78.72 56.875 127.189 56.875 94.123 0 170.667-76.544 170.667-170.667s-76.544-170.667-170.667-170.667zM384 512h-298.667c-23.552 0-42.667 19.115-42.667 42.667s19.115 42.667 42.667 42.667h298.667c47.061 0 85.333 38.272 85.333 85.333s-38.272 85.333-85.333 85.333c-24.235 0-47.445-10.368-63.616-28.459-15.701-17.579-42.667-19.072-60.245-3.328-17.579 15.701-19.029 42.667-3.328 60.245 32.341 36.139 78.677 56.875 127.189 56.875 94.123 0 170.667-76.544 170.667-170.667s-76.544-170.667-170.667-170.667z" />
<glyph unicode="&#xe906;" glyph-name="x" d="M725.333 170.667c-10.923 0-21.845 4.181-30.165 12.501l-183.168 183.168-183.168-183.168c-16.683-16.683-43.648-16.683-60.331 0s-16.683 43.648 0 60.331l183.168 183.168-183.168 183.168c-16.683 16.683-16.683 43.648 0 60.331s43.648 16.683 60.331 0l183.168-183.168 183.168 183.168c16.683 16.683 43.648 16.683 60.331 0s16.683-43.648 0-60.331l-183.168-183.168 183.168-183.168c16.683-16.683 16.683-43.648 0-60.331-8.32-8.32-19.243-12.501-30.165-12.501z" />
<glyph unicode="&#xe907;" glyph-name="x-circle" d="M512-42.666c-258.773 0-469.333 210.56-469.333 469.333s210.56 469.333 469.333 469.333 469.333-210.56 469.333-469.333-210.56-469.333-469.333-469.333zM512 810.667c-211.712 0-384-172.288-384-384 0-211.755 172.288-384 384-384 211.755 0 384 172.245 384 384 0 211.712-172.245 384-384 384zM640 256c-10.923 0-21.845 4.181-30.165 12.501l-97.835 97.835-97.835-97.835c-16.683-16.683-43.648-16.683-60.331 0s-16.683 43.648 0 60.331l97.835 97.835-97.835 97.835c-16.683 16.683-16.683 43.648 0 60.331s43.648 16.683 60.331 0l97.835-97.835 97.835 97.835c16.683 16.683 43.648 16.683 60.331 0s16.683-43.648 0-60.331l-97.835-97.835 97.835-97.835c16.683-16.683 16.683-43.648 0-60.331-8.32-8.32-19.243-12.501-30.165-12.501z" />
<glyph unicode="&#xe908;" glyph-name="x-close" d="M768 128c-10.923 0-21.845 4.181-30.165 12.501l-225.835 225.835-225.835-225.835c-16.683-16.683-43.648-16.683-60.331 0s-16.683 43.648 0 60.331l225.835 225.835-225.835 225.835c-16.683 16.683-16.683 43.648 0 60.331s43.648 16.683 60.331 0l225.835-225.835 225.835 225.835c16.683 16.683 43.648 16.683 60.331 0s16.683-43.648 0-60.331l-225.835-225.835 225.835-225.835c16.683-16.683 16.683-43.648 0-60.331-8.32-8.32-19.243-12.501-30.165-12.501z" />
<glyph unicode="&#xe909;" glyph-name="x-square" d="M691.2-0h-358.4c-78.421 0-117.76 0-154.283 18.645-32.299 16.427-58.112 42.197-74.581 74.539-18.603 36.523-18.603 75.904-18.603 154.283v358.4c0 78.421 0 117.76 18.603 154.283 16.469 32.299 42.283 58.112 74.581 74.581 36.523 18.603 75.861 18.603 154.283 18.603h358.4c78.379 0 117.76 0 154.283-18.603 32.341-16.469 58.112-42.283 74.581-74.624 18.603-36.48 18.603-75.819 18.603-154.24v-358.4c0-78.379 0-117.76-18.603-154.283-16.469-32.341-42.24-58.112-74.624-74.581-36.48-18.603-75.861-18.603-154.24-18.603zM332.8 768c-62.72 0-97.28 0-115.541-9.301-16.171-8.235-29.056-21.12-37.291-37.291-9.301-18.261-9.301-52.821-9.301-115.541v-358.4c0-62.72 0-97.237 9.301-115.541 8.235-16.171 21.12-29.056 37.248-37.248 18.304-9.344 52.864-9.344 115.584-9.344h358.4c62.72 0 97.237 0 115.541 9.344 16.171 8.192 29.056 21.077 37.248 37.205 9.344 18.347 9.344 52.864 9.344 115.584v358.4c0 62.72 0 97.28-9.301 115.541-8.235 16.171-21.12 29.056-37.291 37.291-18.304 9.301-52.821 9.301-115.541 9.301h-358.4zM640 256c-10.923 0-21.845 4.181-30.165 12.501l-97.835 97.835-97.835-97.835c-16.683-16.683-43.648-16.683-60.331 0s-16.683 43.648 0 60.331l97.835 97.835-97.835 97.835c-16.683 16.683-16.683 43.648 0 60.331s43.648 16.683 60.331 0l97.835-97.835 97.835 97.835c16.683 16.683 43.648 16.683 60.331 0s16.683-43.648 0-60.331l-97.835-97.835 97.835-97.835c16.683-16.683 16.683-43.648 0-60.331-8.32-8.32-19.243-12.501-30.165-12.501z" />
<glyph unicode="&#xe90a;" glyph-name="youtube" d="M512 83.030c-27.904 0-274.475 0.555-344.576 19.285-25.173 6.912-48.043 20.139-66.389 38.229-18.389 18.219-31.829 40.917-38.912 65.707-13.653 74.837-19.883 147.029-19.456 218.752-0.341 70.827 5.888 142.464 18.517 212.48 7.083 28.459 20.181 52.053 38.571 70.997 18.432 19.029 41.6 32.853 67.072 40.064 70.699 18.901 317.269 19.456 345.173 19.456 27.819 0 274.005-0.512 343.68-17.493 26.923-7.595 50.091-21.419 68.523-40.405 18.475-19.072 31.573-42.667 38.016-68.309 0.213-0.896 0.427-1.792 0.597-2.731 12.757-70.571 18.944-142.763 18.517-214.613 0.256-70.315-5.973-141.397-18.517-210.901-6.955-28.373-20.139-52.011-38.571-71.040-18.517-18.987-41.685-32.853-67.072-40.021-70.699-18.901-317.312-19.456-345.173-19.456zM512 682.667c-101.035 0-277.931-4.437-322.56-16.384-10.411-2.944-20.437-8.96-28.416-17.152-7.979-8.235-13.653-18.475-16.469-29.611-11.093-62.080-16.853-128.512-16.555-194.56-0.427-66.944 5.333-133.888 17.152-199.381 2.091-6.613 7.936-16.469 15.872-24.32 7.936-7.893 17.835-13.568 28.672-16.597 44.373-11.819 221.269-16.299 322.261-16.299s277.888 4.437 322.56 16.384c10.368 2.944 20.437 8.96 28.459 17.195 7.979 8.192 13.611 18.432 16.384 29.44 11.051 61.653 16.853 127.573 16.597 193.152 0.469 66.475-5.248 132.864-16.896 197.76-2.859 10.624-8.405 20.395-16.128 28.331-7.979 8.192-18.005 14.208-29.013 17.28-43.776 10.752-216.704 14.763-321.92 14.763zM436.949 231.083c-1.365 0-2.731 0.043-4.139 0.171-18.688 1.365-35.627 10.667-46.72 25.515-12.757 16.981-12.757 35.712-12.757 61.739v216.32c0 25.941 0 44.715 12.715 61.781 11.179 14.891 28.203 24.192 46.763 25.515 20.821 1.536 37.035-8.661 58.88-22.699l168.235-108.117c19.413-12.501 33.408-21.504 41.088-39.808 6.656-15.744 6.656-33.92-0.085-49.792-7.552-18.091-21.547-27.093-40.96-39.552l-168.277-108.203c-20.437-13.141-35.584-22.869-54.741-22.869zM459.093 297.942v0zM458.667 519.168v-185.045l143.915 92.544-143.915 92.501z" />
<glyph unicode="&#xe90b;" glyph-name="zap" d="M469.333-42.666c-5.717 0-11.477 1.152-16.939 3.541-17.365 7.552-27.691 25.643-25.344 44.416l36.608 293.376h-262.784c-30.123 0-50.005 0-67.584 14.293-15.317 12.373-23.979 30.848-23.723 50.603 0.384 22.699 13.056 37.931 32.171 60.928l380.16 456.192c12.117 14.592 32.512 19.328 49.792 11.819 17.365-7.552 27.648-25.643 25.344-44.459l-36.693-293.376h262.784c30.080 0 49.963 0 67.584-14.208 15.317-12.416 23.979-30.848 23.765-50.645-0.384-22.741-13.056-37.973-32.256-61.013l-380.117-456.149c-8.277-9.899-20.395-15.317-32.768-15.317zM219.093 384h292.907c12.245 0 23.893-5.248 32-14.421 8.064-9.216 11.861-21.419 10.325-33.536l-24.619-196.907 275.157 330.197h-292.864c-12.245 0-23.893 5.248-32 14.421s-11.861 21.376-10.368 33.536l24.619 196.949-275.157-330.24z" />
<glyph unicode="&#xe90c;" glyph-name="zap-circle" d="M512 106.667c-4.224 0-8.491 0.64-12.629 1.92-17.877 5.547-30.037 22.059-30.037 40.747v170.667h-127.104c-27.648 0-45.952 0-63.104 13.099-15.061 11.477-24.192 28.885-25.131 47.744-1.067 21.589 9.301 36.651 24.96 59.477l197.888 287.872c10.624 15.36 29.824 22.144 47.829 16.597 17.835-5.589 29.995-22.101 29.995-40.789v-170.667h127.104c27.691 0 45.995 0 63.189-13.184 15.019-11.435 24.149-28.885 25.045-47.787 1.109-21.419-9.259-36.523-24.96-59.392l-197.931-287.829c-8.064-11.776-21.333-18.475-35.115-18.475zM358.443 405.334h153.557c23.595 0 42.667-19.072 42.667-42.667v-75.947l110.933 161.28h-153.6c-23.552 0-42.667 19.115-42.667 42.667v75.947l-110.891-161.28zM703.147 447.531v0 0zM686.507 479.232v0 0zM512-42.666c-258.773 0-469.333 210.56-469.333 469.333s210.56 469.333 469.333 469.333 469.333-210.56 469.333-469.333-210.56-469.333-469.333-469.333zM512 810.667c-211.712 0-384-172.288-384-384 0-211.755 172.288-384 384-384 211.755 0 384 172.245 384 384 0 211.712-172.245 384-384 384z" />
<glyph unicode="&#xe90d;" glyph-name="zap-fast" d="M640-0c-5.248 0-10.581 0.939-15.659 2.987-18.261 7.211-29.227 25.856-26.624 45.312l36.224 271.701h-162.261c-28.117 0-46.72 0-64 13.355-15.104 11.691-24.149 29.312-24.832 48.299-0.811 21.803 9.984 36.907 26.368 59.776l281.429 393.984c11.392 15.957 32.299 22.101 50.389 14.891 18.261-7.211 29.227-25.899 26.624-45.312l-36.224-271.659h162.261c28.117 0 46.72 0 64-13.312 15.061-11.648 24.064-29.227 24.832-48.171 0.768-21.973-9.984-37.077-26.283-59.904l-281.515-394.027c-8.192-11.563-21.291-17.92-34.731-17.92zM488.277 405.334h194.389c12.288 0 23.979-5.291 32.085-14.549 8.107-9.301 11.819-21.589 10.197-33.749l-20.011-150.059 172.16 240.981h-194.432c-12.288 0-23.979 5.333-32.085 14.549-8.107 9.259-11.819 21.547-10.197 33.749l20.011 150.016-172.117-240.939zM449.749 405.846v0 0zM915.627 447.488v0 0zM899.072 479.616v0 0zM384 149.334h-234.667c-23.552 0-42.667 19.072-42.667 42.667s19.115 42.667 42.667 42.667h234.667c23.552 0 42.667-19.072 42.667-42.667s-19.115-42.667-42.667-42.667zM277.333 384h-192c-23.552 0-42.667 19.072-42.667 42.667 0 23.552 19.115 42.667 42.667 42.667h192c23.552 0 42.667-19.115 42.667-42.667 0-23.595-19.115-42.667-42.667-42.667zM384 618.667h-213.333c-23.552 0-42.667 19.115-42.667 42.667s19.115 42.667 42.667 42.667h213.333c23.552 0 42.667-19.115 42.667-42.667s-19.115-42.667-42.667-42.667z" />
<glyph unicode="&#xe90e;" glyph-name="zap-off" d="M469.333-42.666c-5.717 0-11.477 1.152-16.939 3.541-17.365 7.552-27.691 25.643-25.344 44.416l36.608 293.376h-262.784c-30.123 0-50.005 0-67.584 14.293-15.317 12.373-23.979 30.848-23.723 50.603 0.384 22.699 13.056 37.931 32.171 60.928l141.867 170.24-185.771 185.771c-16.683 16.683-16.683 43.648 0 60.331s43.648 16.683 60.331 0l213.035-213.035c0.213-0.213 0.427-0.427 0.64-0.64l340.693-340.693c0.213-0.213 0.469-0.427 0.683-0.64l212.949-212.992c16.683-16.683 16.683-43.648 0-60.331s-43.648-16.683-60.331 0l-180.309 180.309-183.424-220.117c-8.277-9.941-20.395-15.36-32.768-15.36zM553.003 325.334l-23.296-186.197 95.232 114.261-71.936 71.936zM219.093 384h275.243l-150.144 150.144-125.099-150.144zM791.424 343.936c-9.643 0-19.285 3.243-27.307 9.856-18.091 15.104-20.523 41.984-5.461 60.117l46.208 55.424h-137.131c-23.595 0-42.667 19.115-42.667 42.667s19.072 42.667 42.667 42.667h155.392c30.080 0 49.963 0 67.584-14.208 15.317-12.416 23.979-30.848 23.765-50.645-0.384-22.869-13.141-38.101-32.384-61.141l-57.813-69.419c-8.491-10.112-20.608-15.317-32.853-15.317zM529.109 605.952c-1.749 0-3.541 0.085-5.333 0.341-23.381 2.901-39.979 24.235-37.035 47.616l7.552 60.331-10.411-12.459c-15.061-18.133-41.984-20.523-60.075-5.461s-20.565 41.941-5.461 60.075l103.552 124.288c12.117 14.592 32.512 19.328 49.792 11.819 17.365-7.552 27.648-25.643 25.344-44.459l-25.6-204.715c-2.731-21.589-21.12-37.376-42.325-37.376z" />
<glyph unicode="&#xe90f;" glyph-name="zap-square" d="M691.2-0h-358.4c-78.421 0-117.76 0-154.283 18.645-32.299 16.427-58.112 42.197-74.581 74.539-18.603 36.523-18.603 75.904-18.603 154.283v358.4c0 78.421 0 117.76 18.603 154.283 16.469 32.299 42.283 58.112 74.581 74.581 36.523 18.603 75.861 18.603 154.283 18.603h358.4c78.379 0 117.76 0 154.283-18.603 32.341-16.469 58.112-42.283 74.581-74.624 18.603-36.48 18.603-75.819 18.603-154.24v-358.4c0-78.379 0-117.76-18.603-154.283-16.469-32.341-42.24-58.112-74.624-74.581-36.48-18.603-75.861-18.603-154.24-18.603zM332.8 768c-62.72 0-97.28 0-115.541-9.301-16.171-8.235-29.056-21.12-37.291-37.291-9.301-18.261-9.301-52.821-9.301-115.541v-358.4c0-62.72 0-97.237 9.301-115.541 8.235-16.171 21.12-29.056 37.248-37.248 18.304-9.344 52.864-9.344 115.584-9.344h358.4c62.72 0 97.237 0 115.541 9.344 16.171 8.192 29.056 21.077 37.248 37.205 9.344 18.347 9.344 52.864 9.344 115.584v358.4c0 62.72 0 97.28-9.301 115.541-8.235 16.171-21.12 29.056-37.291 37.291-18.304 9.301-52.821 9.301-115.541 9.301h-358.4zM512 128c-4.437 0-8.875 0.683-13.269 2.133-17.536 5.76-29.397 22.059-29.397 40.533v149.333h-124.629c-28.459 0-47.232 0-64.597 13.483-15.104 11.819-24.107 29.525-24.661 48.64-0.64 22.016 10.453 37.12 27.264 60.032l194.901 265.728c10.88 14.848 30.165 21.077 47.701 15.317 17.493-5.717 29.355-22.059 29.355-40.533v-149.333h124.629c28.416 0 47.189 0 64.555-13.483 15.147-11.691 24.192-29.525 24.704-48.811 0.64-21.888-10.496-37.035-27.307-59.947l-194.816-265.728c-8.235-11.136-21.12-17.365-34.432-17.365zM361.515 405.334h150.485c23.595 0 42.667-19.072 42.667-42.667v-61.653l107.776 146.987h-150.443c-23.552 0-42.667 19.115-42.667 42.667v61.653l-107.819-146.987zM322.389 405.846v0 0z" />
<glyph unicode="&#xe910;" glyph-name="zoom-in" d="M896-0c-10.923 0-21.845 4.181-30.165 12.501l-156.928 156.928c-65.749-52.608-149.035-84.096-239.573-84.096-211.712 0-384 172.245-384 384 0 211.712 172.288 384 384 384 211.755 0 384-172.288 384-384 0-90.539-31.488-173.824-84.096-239.573l156.928-156.928c16.683-16.683 16.683-43.648 0-60.331-8.32-8.32-19.243-12.501-30.165-12.501zM469.333 768c-164.693 0-298.667-133.973-298.667-298.667 0-164.651 133.973-298.667 298.667-298.667 80.811 0 154.155 32.256 208 84.523 0.896 1.067 1.877 2.176 2.901 3.2s2.133 2.005 3.2 2.901c52.309 53.888 84.565 127.232 84.565 208.043 0 164.693-134.016 298.667-298.667 298.667zM469.333 298.667c-23.552 0-42.667 19.072-42.667 42.667v85.333h-85.333c-23.552 0-42.667 19.115-42.667 42.667s19.115 42.667 42.667 42.667h85.333v85.333c0 23.552 19.115 42.667 42.667 42.667s42.667-19.115 42.667-42.667v-85.333h85.333c23.595 0 42.667-19.115 42.667-42.667s-19.072-42.667-42.667-42.667h-85.333v-85.333c0-23.595-19.115-42.667-42.667-42.667z" />
<glyph unicode="&#xe911;" glyph-name="zoom-out" d="M896-0c-10.923 0-21.845 4.181-30.165 12.501l-156.928 156.928c-65.749-52.608-149.035-84.096-239.573-84.096-211.712 0-384 172.245-384 384 0 211.712 172.288 384 384 384 211.755 0 384-172.288 384-384 0-90.539-31.488-173.824-84.096-239.573l156.928-156.928c16.683-16.683 16.683-43.648 0-60.331-8.32-8.32-19.243-12.501-30.165-12.501zM469.333 768c-164.693 0-298.667-133.973-298.667-298.667 0-164.651 133.973-298.667 298.667-298.667 80.811 0 154.155 32.256 208 84.523 0.896 1.067 1.877 2.176 2.901 3.2s2.133 2.005 3.2 2.901c52.309 53.888 84.565 127.232 84.565 208.043 0 164.693-134.016 298.667-298.667 298.667zM597.333 426.667h-256c-23.552 0-42.667 19.115-42.667 42.667s19.115 42.667 42.667 42.667h256c23.595 0 42.667-19.115 42.667-42.667s-19.072-42.667-42.667-42.667z" />
<glyph unicode="&#xe912;" glyph-name="activity" d="M640-0c-18.389 0-34.645 11.733-40.448 29.184l-215.552 646.571-87.509-262.571c-5.845-17.451-22.101-29.184-40.491-29.184h-170.667c-23.552 0-42.667 19.072-42.667 42.667 0 23.552 19.115 42.667 42.667 42.667h139.904l118.272 354.816c5.845 17.451 22.101 29.184 40.491 29.184s34.645-11.733 40.491-29.184l215.509-646.571 87.552 262.571c5.803 17.451 22.059 29.184 40.448 29.184h170.667c23.595 0 42.667-19.115 42.667-42.667 0-23.595-19.072-42.667-42.667-42.667h-139.904l-118.272-354.816c-5.845-17.451-22.101-29.184-40.491-29.184z" />
<glyph unicode="&#xe913;" glyph-name="activity-heart" d="M511.744 14.251c-8.32 0-16.64 1.152-24.576 3.541-18.091 5.419-30.165 16.213-48.427 32.512-96.981 86.571-269.312 244.139-333.141 326.272-99.371 127.829-80.469 304.341 43.947 410.624 107.264 91.605 256.043 86.443 362.069-6.912 105.643 93.696 251.691 98.816 361.771 7.296 123.947-103.040 143.445-283.563 44.416-411.008-63.701-82.005-236.032-239.616-333.141-326.272-18.304-16.299-30.379-27.093-48.555-32.512-7.808-2.389-16.085-3.541-24.363-3.541zM323.541 768.256c-39.851 0-80.853-13.739-118.528-45.909-89.088-76.117-102.869-202.24-32.043-293.376 61.909-79.701 246.229-246.827 322.603-314.965 7.509-6.699 15.232-13.611 17.92-15.104-0.853 1.493 6.912 8.405 14.421 15.104 76.416 68.224 260.779 235.477 322.56 314.965 71.851 92.416 58.283 218.411-31.531 293.035-95.488 79.403-210.517 44.928-274.731-30.165-16.171-18.944-48.64-18.944-64.853 0-39.083 45.568-96.128 76.416-155.819 76.416zM554.667 277.334c-0.981 0-2.005 0.043-3.029 0.128-17.195 1.195-31.957 12.672-37.419 29.056l-52.779 158.293-17.92-35.883c-7.253-14.464-22.016-23.595-38.187-23.595h-42.667c-23.552 0-42.667 19.072-42.667 42.667 0 23.552 19.115 42.667 42.667 42.667h16.299l52.224 104.405c7.723 15.445 24.021 24.363 41.173 23.467 17.195-1.237 32-12.715 37.461-29.056l52.779-158.293 17.92 35.883c7.253 14.464 22.016 23.595 38.187 23.595h42.667c23.595 0 42.667-19.115 42.667-42.667 0-23.595-19.072-42.667-42.667-42.667h-16.299l-52.224-104.405c-7.253-14.549-22.101-23.595-38.187-23.595z" />
<glyph unicode="&#xe914;" glyph-name="airplay" d="M652.459-0h-280.917c-30.123 0-50.005 0-67.584 14.293-15.317 12.373-23.979 30.848-23.723 50.603 0.384 22.699 13.056 37.931 32.171 60.928l140.587 168.747c11.819 14.123 20.949 25.088 37.12 30.976 13.952 5.163 29.611 5.12 43.947-0.085 16-5.845 25.173-16.853 36.736-30.763l140.629-168.661c19.2-23.083 31.957-38.315 32.341-60.971 0.256-19.883-8.363-38.315-23.723-50.731-17.621-14.336-37.504-14.336-67.584-14.336zM389.76 85.334h244.48l-122.24 146.688-122.24-146.688zM810.667 128c-23.595 0-42.667 19.072-42.667 42.667s19.072 42.667 42.667 42.667c47.061 0 85.333 38.272 85.333 85.333v307.2c0 62.72 0 97.28-9.301 115.541-8.235 16.171-21.12 29.056-37.291 37.291-18.304 9.301-52.821 9.301-115.541 9.301h-443.733c-62.72 0-97.28 0-115.541-9.301-16.171-8.235-29.056-21.12-37.291-37.291-9.301-18.261-9.301-52.821-9.301-115.541v-307.2c0-47.061 38.272-85.333 85.333-85.333 23.552 0 42.667-19.072 42.667-42.667s-19.115-42.667-42.667-42.667c-94.123 0-170.667 76.544-170.667 170.667v307.2c0 78.421 0 117.76 18.603 154.283 16.469 32.299 42.283 58.112 74.581 74.581 36.523 18.603 75.861 18.603 154.283 18.603h443.733c78.379 0 117.76 0 154.283-18.603 32.341-16.469 58.112-42.283 74.581-74.624 18.603-36.48 18.603-75.819 18.603-154.24v-307.2c0-94.123-76.544-170.667-170.667-170.667z" />
<glyph unicode="&#xe915;" glyph-name="airpods" d="M368 21.334c-61.739 0-112 50.261-112 112v261.419c-118.144 2.816-213.333 99.797-213.333 218.581 0 120.576 98.091 218.667 218.667 218.667s218.667-98.091 218.667-218.667v-480c0-61.739-50.261-112-112-112zM261.333 746.667c-73.515 0-133.333-59.819-133.333-133.333s59.819-133.333 133.333-133.333c17.792 0 26.752 0 36.907-3.499 19.541-6.741 32.896-20.096 39.637-39.68 3.456-10.069 3.456-19.243 3.456-33.152v-270.336c0-14.72 11.947-26.667 26.667-26.667s26.667 11.947 26.667 26.667v480c0 73.515-59.819 133.333-133.333 133.333zM656 21.334c-61.739 0-112 50.261-112 112v480c0 120.576 98.091 218.667 218.667 218.667s218.667-98.091 218.667-218.667c0-118.784-95.189-215.765-213.333-218.581v-261.419c0-61.739-50.261-112-112-112zM762.667 746.667c-73.515 0-133.333-59.819-133.333-133.333v-480c0-14.72 11.947-26.667 26.667-26.667s26.667 11.947 26.667 26.667v270.336c0 13.909 0 23.083 3.499 33.237 6.784 19.584 20.139 32.896 39.68 39.637 10.069 3.499 19.029 3.499 36.821 3.499 73.515-0.043 133.333 59.776 133.333 133.291s-59.819 133.333-133.333 133.333z" />
<glyph unicode="&#xe916;" glyph-name="alarm-clock" d="M853.333-0c-10.923 0-21.845 4.181-30.165 12.501l-71.467 71.467c-67.84-54.443-151.552-83.968-239.701-83.968-88.235 0-171.904 29.525-239.744 83.968l-71.424-71.467c-16.683-16.683-43.648-16.683-60.331 0s-16.683 43.648 0 60.331l71.424 71.467c-54.4 67.84-83.925 151.509-83.925 239.701 0 102.571 39.936 199.040 112.469 271.531 72.491 72.533 168.96 112.469 271.531 112.469 102.528 0 198.997-39.936 271.531-112.469s112.469-168.96 112.469-271.531c0-88.192-29.525-171.861-83.968-239.701l71.467-71.467c16.683-16.683 16.683-43.648 0-60.331-8.32-8.32-19.243-12.501-30.165-12.501zM512 682.667c-79.787 0-154.795-31.061-211.2-87.467s-87.467-131.413-87.467-211.2c0-79.744 31.061-154.795 87.467-211.2s131.413-87.467 211.2-87.467c79.744 0 154.795 31.104 211.2 87.467 56.363 56.405 87.467 131.456 87.467 211.2 0 79.787-31.061 154.795-87.467 211.2s-131.456 87.467-211.2 87.467zM597.333 256c-10.923 0-21.845 4.181-30.165 12.501l-85.333 85.333c-8.021 7.979-12.501 18.816-12.501 30.165v170.667c0 23.552 19.115 42.667 42.667 42.667 23.595 0 42.667-19.115 42.667-42.667v-153.003l72.832-72.832c16.683-16.683 16.683-43.648 0-60.331-8.32-8.32-19.243-12.501-30.165-12.501zM938.667 640c-10.923 0-21.845 4.181-30.165 12.501l-128 128c-16.683 16.683-16.683 43.648 0 60.331s43.648 16.683 60.331 0l128-128c16.683-16.683 16.683-43.648 0-60.331-8.32-8.32-19.243-12.501-30.165-12.501zM85.333 640c-10.923 0-21.845 4.181-30.165 12.501-16.683 16.683-16.683 43.648 0 60.331l128 128c16.683 16.683 43.648 16.683 60.331 0s16.683-43.648 0-60.331l-128-128c-8.32-8.32-19.243-12.501-30.165-12.501z" />
<glyph unicode="&#xe917;" glyph-name="alarm-clock-check" d="M853.333-0c-10.923 0-21.845 4.181-30.165 12.501l-71.467 71.467c-67.84-54.443-151.552-83.968-239.701-83.968-88.235 0-171.904 29.525-239.744 83.968l-71.424-71.467c-16.683-16.683-43.648-16.683-60.331 0s-16.683 43.648 0 60.331l71.424 71.467c-54.4 67.84-83.925 151.509-83.925 239.701 0 102.571 39.936 199.040 112.469 271.531 72.491 72.533 168.96 112.469 271.531 112.469 102.528 0 198.997-39.936 271.531-112.469s112.469-168.96 112.469-271.531c0-88.192-29.525-171.861-83.968-239.701l71.467-71.467c16.683-16.683 16.683-43.648 0-60.331-8.32-8.32-19.243-12.501-30.165-12.501zM512 682.667c-79.787 0-154.795-31.061-211.2-87.467s-87.467-131.413-87.467-211.2c0-79.744 31.061-154.795 87.467-211.2s131.413-87.467 211.2-87.467c79.744 0 154.795 31.104 211.2 87.467 56.363 56.405 87.467 131.456 87.467 211.2 0 79.787-31.061 154.795-87.467 211.2s-131.456 87.467-211.2 87.467zM469.333 234.667c-10.923 0-21.845 4.181-30.165 12.501l-85.333 85.333c-16.683 16.683-16.683 43.648 0 60.331s43.648 16.683 60.331 0l55.168-55.168 161.835 161.835c16.683 16.683 43.648 16.683 60.331 0s16.683-43.648 0-60.331l-192-192c-8.32-8.32-19.243-12.501-30.165-12.501zM938.667 640c-10.923 0-21.845 4.181-30.165 12.501l-128 128c-16.683 16.683-16.683 43.648 0 60.331s43.648 16.683 60.331 0l128-128c16.683-16.683 16.683-43.648 0-60.331-8.32-8.32-19.243-12.501-30.165-12.501zM85.333 640c-10.923 0-21.845 4.181-30.165 12.501-16.683 16.683-16.683 43.648 0 60.331l128 128c16.683 16.683 43.648 16.683 60.331 0s16.683-43.648 0-60.331l-128-128c-8.32-8.32-19.243-12.501-30.165-12.501z" />
<glyph unicode="&#xe918;" glyph-name="alarm-clock-minus" d="M853.333-0c-10.923 0-21.845 4.181-30.165 12.501l-71.467 71.467c-67.84-54.443-151.552-83.968-239.701-83.968-88.235 0-171.904 29.525-239.744 83.968l-71.424-71.467c-16.683-16.683-43.648-16.683-60.331 0s-16.683 43.648 0 60.331l71.424 71.467c-54.4 67.84-83.925 151.509-83.925 239.701 0 102.571 39.936 199.040 112.469 271.531 72.491 72.533 168.96 112.469 271.531 112.469 102.528 0 198.997-39.936 271.531-112.469s112.469-168.96 112.469-271.531c0-88.192-29.525-171.861-83.968-239.701l71.467-71.467c16.683-16.683 16.683-43.648 0-60.331-8.32-8.32-19.243-12.501-30.165-12.501zM512 682.667c-79.787 0-154.795-31.061-211.2-87.467s-87.467-131.413-87.467-211.2c0-79.744 31.061-154.795 87.467-211.2s131.413-87.467 211.2-87.467c79.744 0 154.795 31.104 211.2 87.467 56.363 56.405 87.467 131.456 87.467 211.2 0 79.787-31.061 154.795-87.467 211.2s-131.456 87.467-211.2 87.467zM640 341.334h-256c-23.552 0-42.667 19.072-42.667 42.667s19.115 42.667 42.667 42.667h256c23.595 0 42.667-19.072 42.667-42.667s-19.072-42.667-42.667-42.667zM938.667 640c-10.923 0-21.845 4.181-30.165 12.501l-128 128c-16.683 16.683-16.683 43.648 0 60.331s43.648 16.683 60.331 0l128-128c16.683-16.683 16.683-43.648 0-60.331-8.32-8.32-19.243-12.501-30.165-12.501zM85.333 640c-10.923 0-21.845 4.181-30.165 12.501-16.683 16.683-16.683 43.648 0 60.331l128 128c16.683 16.683 43.648 16.683 60.331 0s16.683-43.648 0-60.331l-128-128c-8.32-8.32-19.243-12.501-30.165-12.501z" />
<glyph unicode="&#xe919;" glyph-name="alarm-clock-off" d="M896-0c-10.923 0-21.845 4.181-30.165 12.501l-91.264 91.264c-71.509-67.072-164.224-103.765-262.571-103.765-88.235 0-171.904 29.525-239.744 83.968l-71.424-71.467c-16.683-16.683-43.648-16.683-60.331 0s-16.683 43.648 0 60.331l71.424 71.467c-54.4 67.84-83.925 151.509-83.925 239.701 0 98.389 36.779 191.147 103.765 262.528l-61.099 61.141-55.168-55.168c-16.683-16.683-43.648-16.683-60.331 0s-16.683 43.648 0 60.331l55.168 55.168-12.501 12.501c-16.683 16.683-16.683 43.648 0 60.331s43.648 16.683 60.331 0l644.181-644.181c1.152-1.024 2.219-2.133 3.243-3.243l120.576-120.576c16.683-16.683 16.683-43.648 0-60.331-8.32-8.32-19.243-12.501-30.165-12.501zM292.181 586.155c-50.987-55.296-78.848-126.592-78.848-202.155 0-79.744 31.061-154.795 87.467-211.2s131.413-87.467 211.2-87.467c75.563 0 146.859 27.861 202.155 78.805l-421.973 422.016zM847.317 277.334c-2.645 0-5.333 0.256-8.021 0.768-23.125 4.437-38.315 26.752-33.92 49.92 3.499 18.347 5.291 37.205 5.291 55.979 0 79.787-31.061 154.795-87.467 211.2-69.632 69.632-170.24 100.693-267.221 82.176-23.211-4.309-45.483 10.752-49.92 33.92-4.395 23.125 10.795 45.483 33.92 49.877 124.8 23.765 253.995-16.085 343.552-105.685 72.533-72.491 112.469-168.917 112.469-271.488 0-24.107-2.304-48.384-6.784-72.021-3.925-20.437-21.803-34.645-41.899-34.645zM938.667 640c-10.923 0-21.845 4.181-30.165 12.501l-128 128c-16.683 16.683-16.683 43.648 0 60.331s43.648 16.683 60.331 0l128-128c16.683-16.683 16.683-43.648 0-60.331-8.32-8.32-19.243-12.501-30.165-12.501z" />
<glyph unicode="&#xe91a;" glyph-name="alarm-clock-plus" d="M853.333-0c-10.923 0-21.845 4.181-30.165 12.501l-71.467 71.467c-67.84-54.443-151.552-83.968-239.701-83.968-88.235 0-171.904 29.525-239.744 83.968l-71.424-71.467c-16.683-16.683-43.648-16.683-60.331 0s-16.683 43.648 0 60.331l71.424 71.467c-54.4 67.84-83.925 151.509-83.925 239.701 0 102.571 39.936 199.040 112.469 271.531 72.491 72.533 168.96 112.469 271.531 112.469 102.528 0 198.997-39.936 271.531-112.469s112.469-168.96 112.469-271.531c0-88.192-29.525-171.861-83.968-239.701l71.467-71.467c16.683-16.683 16.683-43.648 0-60.331-8.32-8.32-19.243-12.501-30.165-12.501zM512 682.667c-79.787 0-154.795-31.061-211.2-87.467s-87.467-131.413-87.467-211.2c0-79.744 31.061-154.795 87.467-211.2s131.413-87.467 211.2-87.467c79.744 0 154.795 31.104 211.2 87.467 56.363 56.405 87.467 131.456 87.467 211.2 0 79.787-31.061 154.795-87.467 211.2s-131.456 87.467-211.2 87.467zM512 213.334c-23.552 0-42.667 19.072-42.667 42.667v85.333h-85.333c-23.552 0-42.667 19.072-42.667 42.667s19.115 42.667 42.667 42.667h85.333v85.333c0 23.552 19.115 42.667 42.667 42.667 23.595 0 42.667-19.115 42.667-42.667v-85.333h85.333c23.595 0 42.667-19.072 42.667-42.667s-19.072-42.667-42.667-42.667h-85.333v-85.333c0-23.595-19.072-42.667-42.667-42.667zM938.667 640c-10.923 0-21.845 4.181-30.165 12.501l-128 128c-16.683 16.683-16.683 43.648 0 60.331s43.648 16.683 60.331 0l128-128c16.683-16.683 16.683-43.648 0-60.331-8.32-8.32-19.243-12.501-30.165-12.501zM85.333 640c-10.923 0-21.845 4.181-30.165 12.501-16.683 16.683-16.683 43.648 0 60.331l128 128c16.683 16.683 43.648 16.683 60.331 0s16.683-43.648 0-60.331l-128-128c-8.32-8.32-19.243-12.501-30.165-12.501z" />
<glyph unicode="&#xe91b;" glyph-name="alert-circle" d="M512-42.666c-258.773 0-469.333 210.56-469.333 469.333s210.56 469.333 469.333 469.333 469.333-210.56 469.333-469.333-210.56-469.333-469.333-469.333zM512 810.667c-211.712 0-384-172.288-384-384 0-211.755 172.288-384 384-384 211.755 0 384 172.245 384 384 0 211.712-172.245 384-384 384zM512.427 213.334c-23.552 0-42.88 19.072-42.88 42.667s18.901 42.667 42.453 42.667h0.427c23.595 0 42.667-19.072 42.667-42.667s-19.115-42.667-42.667-42.667zM512 384c-23.552 0-42.667 19.072-42.667 42.667v170.667c0 23.552 19.115 42.667 42.667 42.667 23.595 0 42.667-19.115 42.667-42.667v-170.667c0-23.595-19.072-42.667-42.667-42.667z" />
<glyph unicode="&#xe91c;" glyph-name="alert-hexagon" d="M512-36.522c-5.717 0-11.477 0.597-17.152 1.749-12.757 2.645-22.101 7.851-36.224 15.659l-316.245 175.659c-15.232 8.448-25.259 13.995-34.603 24.192-8.064 8.747-14.251 19.157-18.133 30.805-4.309 13.227-4.309 24.661-4.309 41.941v346.368c0 17.323 0 28.757 4.309 41.771 3.883 11.691 10.027 22.144 18.304 31.104 9.259 10.069 19.2 15.573 34.176 23.936l316.032 175.573c14.635 8.107 23.979 13.312 36.693 15.915 11.435 2.304 23.083 2.304 34.347 0 12.715-2.603 22.016-7.765 36.139-15.573l316.288-175.744c15.104-8.405 25.131-13.952 34.432-23.979 8.448-9.173 14.635-19.669 18.432-31.317 4.181-12.885 4.181-24.363 4.181-41.685v-346.325c0-17.323 0-28.8-4.352-41.856-3.712-11.349-10.027-22.144-18.304-31.061-9.301-10.112-19.328-15.659-34.517-24.064l-315.648-175.36c-14.677-8.107-23.979-13.312-36.608-15.915-5.717-1.237-11.477-1.792-17.237-1.792zM510.763 804.864c-0.939-1.28-4.693-3.627-10.795-7.040l-316.117-175.616c-6.827-3.797-11.136-5.888-14.165-8.235 0.725-1.621 0.981-6.485 0.981-14.123v-346.325c0-7.68-0.256-12.501 0.341-16.384 1.792-0.213 6.144-2.304 12.715-5.931l315.861-175.488c6.528-3.627 10.325-6.016 13.696-7.253 0.853 1.237 4.565 3.627 10.709 6.997l316.16 175.659c6.656 3.712 11.008 5.803 14.080 8.192-0.597 1.707-0.896 6.571-0.896 14.165v346.368c0 7.637 0.299 12.459-0.341 16.299-1.749 0.256-6.144 2.347-12.843 6.101l-315.691 175.403c-6.528 3.584-10.283 5.931-13.696 7.211zM512.427 213.334c-23.552 0-42.88 19.072-42.88 42.667s18.901 42.667 42.453 42.667h0.427c23.595 0 42.667-19.072 42.667-42.667s-19.115-42.667-42.667-42.667zM512 384c-23.552 0-42.667 19.072-42.667 42.667v170.667c0 23.552 19.115 42.667 42.667 42.667 23.595 0 42.667-19.115 42.667-42.667v-170.667c0-23.595-19.072-42.667-42.667-42.667z" />
<glyph unicode="&#xe91d;" glyph-name="alert-octagon" d="M660.395-42.666h-296.747c-12.459 0-20.651 0-30.421 2.347-8.789 2.091-17.024 5.547-24.747 10.24-8.533 5.163-14.592 11.264-22.997 19.669l-210.304 210.304c-8.832 8.789-14.805 14.805-20.053 23.424-4.565 7.467-8.021 15.787-10.112 24.576-2.347 9.685-2.347 17.92-2.347 30.379v296.747c0 12.501 0 20.736 2.389 30.592 2.048 8.661 5.504 16.939 10.155 24.576 5.205 8.533 11.264 14.592 19.669 22.997l210.304 210.304c8.704 8.661 14.763 14.72 23.381 20.011 7.552 4.608 15.829 8.064 24.533 10.155 9.813 2.347 18.048 2.347 30.549 2.347h296.747c12.459 0 20.693 0 30.549-2.389 8.661-2.048 16.981-5.504 24.704-10.24 8.363-5.077 14.379-11.051 22.656-19.371l210.56-210.56c8.661-8.661 14.763-14.72 20.011-23.339 4.608-7.595 8.064-15.872 10.155-24.533 2.304-9.899 2.304-18.091 2.304-30.549v-296.747c0-12.416 0-20.608-2.347-30.379-2.091-8.789-5.547-17.152-10.283-24.875-5.077-8.363-11.093-14.379-19.371-22.656l-210.56-210.56c-8.789-8.789-14.805-14.805-23.424-20.053-7.467-4.565-15.829-8.021-24.576-10.112-9.771-2.304-17.963-2.304-30.379-2.304zM357.163 810.71c-1.963 0-3.584-0.043-5.035-0.213-0.469-1.024-2.688-3.413-6.315-7.040l-210.304-210.347c-3.925-3.883-6.315-6.101-8.021-8.235 0.384-1.109 0.512-4.523 0.512-9.856v-296.747c0-5.333-0.128-8.704 0.171-11.477 0.981-0.469 3.328-2.645 6.827-6.144l210.56-210.56c3.883-3.883 6.144-6.315 8.277-8.021 1.024 0.427 4.395 0.597 9.813 0.597h296.747c5.461-0.043 8.832-0.128 11.563 0.171 0.384 0.981 2.56 3.328 6.059 6.827l210.56 210.56c4.011 4.011 6.315 6.187 8.021 8.235-0.427 1.067-0.597 4.437-0.597 9.813v296.747c0 5.376 0.171 8.789-0.171 11.605-0.981 0.384-3.456 2.603-7.083 6.229l-210.304 210.304c-4.011 4.011-6.187 6.357-8.235 8.021-1.109-0.384-4.48-0.512-9.813-0.512h-296.747c-2.56 0-4.651 0.043-6.485 0.043zM512.427 213.334c-23.552 0-42.88 19.072-42.88 42.667s18.901 42.667 42.453 42.667h0.427c23.595 0 42.667-19.072 42.667-42.667s-19.115-42.667-42.667-42.667zM512 384c-23.552 0-42.667 19.072-42.667 42.667v170.667c0 23.552 19.115 42.667 42.667 42.667 23.595 0 42.667-19.115 42.667-42.667v-170.667c0-23.595-19.072-42.667-42.667-42.667z" />
<glyph unicode="&#xe91e;" glyph-name="alert-square" d="M691.2-0h-358.4c-78.421 0-117.76 0-154.283 18.645-32.299 16.427-58.112 42.197-74.581 74.539-18.603 36.523-18.603 75.904-18.603 154.283v358.4c0 78.421 0 117.76 18.603 154.283 16.469 32.299 42.283 58.112 74.581 74.581 36.523 18.603 75.861 18.603 154.283 18.603h358.4c78.379 0 117.76 0 154.283-18.603 32.341-16.469 58.112-42.283 74.581-74.624 18.603-36.48 18.603-75.819 18.603-154.24v-358.4c0-78.379 0-117.76-18.603-154.283-16.469-32.341-42.24-58.112-74.624-74.581-36.48-18.603-75.861-18.603-154.24-18.603zM332.8 768c-62.72 0-97.28 0-115.541-9.301-16.171-8.235-29.056-21.12-37.291-37.291-9.301-18.261-9.301-52.821-9.301-115.541v-358.4c0-62.72 0-97.237 9.301-115.541 8.235-16.171 21.12-29.056 37.248-37.248 18.304-9.344 52.864-9.344 115.584-9.344h358.4c62.72 0 97.237 0 115.541 9.344 16.171 8.192 29.056 21.077 37.248 37.205 9.344 18.347 9.344 52.864 9.344 115.584v358.4c0 62.72 0 97.28-9.301 115.541-8.235 16.171-21.12 29.056-37.291 37.291-18.304 9.301-52.821 9.301-115.541 9.301h-358.4zM512.427 213.334c-23.552 0-42.88 19.072-42.88 42.667s18.901 42.667 42.453 42.667h0.427c23.595 0 42.667-19.072 42.667-42.667s-19.115-42.667-42.667-42.667zM512 384c-23.552 0-42.667 19.072-42.667 42.667v170.667c0 23.552 19.115 42.667 42.667 42.667 23.595 0 42.667-19.115 42.667-42.667v-170.667c0-23.595-19.072-42.667-42.667-42.667z" />
<glyph unicode="&#xe91f;" glyph-name="alert-triangle" d="M862.933 21.334h-701.867c-46.507 0-72.149 0-94.592 16.341-19.541 14.251-32.171 36.181-34.645 60.16-2.859 27.563 9.941 49.707 33.195 89.856l350.976 606.293 36.907-21.376-36.864 21.504c23.168 40.021 35.968 62.123 61.269 73.344 22.059 9.771 47.317 9.771 69.333 0 25.344-11.264 38.144-33.365 61.355-73.472l350.933-606.208c23.424-40.405 36.181-62.507 33.237-90.069-2.475-23.936-15.104-45.867-34.645-60.075-22.443-16.299-48.085-16.299-94.592-16.299zM118.315 107.606c8.96-0.939 26.112-0.939 42.752-0.939h701.867c16.683 0 33.792 0 42.752 0.939-3.669 8.149-12.117 22.827-20.395 37.12l-351.104 606.507c-8.363 14.336-16.896 29.099-22.187 36.395-5.291-7.253-13.781-21.973-22.101-36.267l-36.992 21.291 36.907-21.376-350.933-606.208c-8.32-14.421-16.896-29.227-20.565-37.461zM512.427 170.667c-23.552 0-42.88 19.072-42.88 42.667s18.901 42.667 42.453 42.667h0.427c23.595 0 42.667-19.072 42.667-42.667s-19.115-42.667-42.667-42.667zM512 341.334c-23.552 0-42.667 19.072-42.667 42.667v170.667c0 23.552 19.115 42.667 42.667 42.667 23.595 0 42.667-19.115 42.667-42.667v-170.667c0-23.595-19.072-42.667-42.667-42.667z" />
<glyph unicode="&#xe920;" glyph-name="align-bottom-01" d="M896-0h-768c-23.552 0-42.667 19.072-42.667 42.667s19.115 42.667 42.667 42.667h768c23.595 0 42.667-19.072 42.667-42.667s-19.072-42.667-42.667-42.667zM512 170.667c-0.043 0-0.085 0-0.128 0v0c-5.717 0-11.179 1.152-16.128 3.2-5.077 2.091-9.813 5.163-13.909 9.301l-298.667 298.667c-16.683 16.683-16.683 43.648 0 60.331s43.648 16.683 60.331 0l225.835-225.835v494.336c0 23.552 19.115 42.667 42.667 42.667 23.595 0 42.667-19.115 42.667-42.667v-494.336l225.835 225.835c16.683 16.683 43.648 16.683 60.331 0s16.683-43.648 0-60.331l-298.667-298.667c-4.139-4.139-8.832-7.211-13.909-9.301-4.949-2.048-10.411-3.2-16.128-3.2v0c-0.043 0-0.085 0-0.128 0z" />
<glyph unicode="&#xe921;" glyph-name="align-bottom-02" d="M298.667-0c-43.947 0-68.139 0-91.648 9.771-31.573 13.099-56.149 37.675-69.248 69.248-9.771 23.552-9.771 47.744-9.771 91.648v512c0 43.947 0 68.139 9.771 91.648 13.099 31.573 37.675 56.149 69.291 69.248 23.467 9.771 47.659 9.771 91.605 9.771s68.139 0 91.648-9.771c31.573-13.099 56.149-37.675 69.248-69.291 9.771-23.467 9.771-47.659 9.771-91.605v-512c0-43.904 0-68.096-9.771-91.648-13.099-31.573-37.675-56.149-69.291-69.248-23.467-9.771-47.659-9.771-91.605-9.771zM298.667 768c-30.805 0-51.157 0-58.965-3.243-10.539-4.395-18.731-12.587-23.125-23.125-3.243-7.808-3.243-28.16-3.243-58.965v-512c0-30.805 0-51.157 3.243-59.008 4.352-10.496 12.544-18.688 23.125-23.083 7.808-3.243 28.16-3.243 58.965-3.243s51.157 0 58.965 3.243c10.581 4.395 18.773 12.587 23.125 23.083 3.243 7.851 3.243 28.203 3.243 59.008v512c0 30.805 0 51.157-3.243 58.965-4.395 10.539-12.587 18.731-23.125 23.125-7.808 3.243-28.16 3.243-58.965 3.243zM725.333-0c-43.904 0-68.096 0-91.648 9.771-31.573 13.099-56.149 37.675-69.248 69.248-9.771 23.552-9.771 47.744-9.771 91.648v341.333c0 43.947 0 68.139 9.771 91.648 13.099 31.573 37.675 56.149 69.248 69.248 23.552 9.771 47.744 9.771 91.648 9.771s68.096 0 91.648-9.771c31.573-13.099 56.149-37.675 69.248-69.291 9.771-23.467 9.771-47.659 9.771-91.605v-341.333c0-43.904 0-68.096-9.771-91.648-13.099-31.573-37.675-56.149-69.248-69.248-23.552-9.771-47.744-9.771-91.648-9.771zM725.333 597.334c-30.805 0-51.157 0-59.008-3.243-10.496-4.352-18.688-12.544-23.083-23.125-3.243-7.808-3.243-28.16-3.243-58.965v-341.333c0-30.805 0-51.157 3.243-59.008 4.395-10.539 12.544-18.688 23.083-23.083 7.851-3.243 28.203-3.243 59.008-3.243s51.157 0 59.008 3.243c10.539 4.395 18.688 12.544 23.083 23.083 3.243 7.851 3.243 28.203 3.243 59.008v341.333c0 30.805 0 51.157-3.243 58.965-4.395 10.581-12.587 18.773-23.083 23.125-7.851 3.243-28.203 3.243-59.008 3.243z" />
<glyph unicode="&#xe922;" glyph-name="align-center" d="M768 128h-512c-23.552 0-42.667 19.072-42.667 42.667s19.115 42.667 42.667 42.667h512c23.595 0 42.667-19.072 42.667-42.667s-19.072-42.667-42.667-42.667zM896 298.667h-768c-23.552 0-42.667 19.072-42.667 42.667s19.115 42.667 42.667 42.667h768c23.595 0 42.667-19.072 42.667-42.667s-19.072-42.667-42.667-42.667zM768 469.334h-512c-23.552 0-42.667 19.115-42.667 42.667s19.115 42.667 42.667 42.667h512c23.595 0 42.667-19.115 42.667-42.667s-19.072-42.667-42.667-42.667zM896 640h-768c-23.552 0-42.667 19.115-42.667 42.667s19.115 42.667 42.667 42.667h768c23.595 0 42.667-19.115 42.667-42.667s-19.072-42.667-42.667-42.667z" />
<glyph unicode="&#xe923;" glyph-name="align-horizontal-centre-01" d="M512-0c-23.552 0-42.667 19.072-42.667 42.667v768c0 23.552 19.115 42.667 42.667 42.667 23.595 0 42.667-19.115 42.667-42.667v-768c0-23.595-19.072-42.667-42.667-42.667zM832 213.334c-10.923 0-21.845 4.181-30.165 12.501l-170.667 170.667c-4.139 4.139-7.211 8.832-9.301 13.909-2.048 4.949-3.2 10.411-3.2 16.128v0c0 0.085 0 0.171 0 0.256v0c0 5.717 1.152 11.179 3.2 16.128 2.091 5.077 5.163 9.813 9.301 13.909l170.667 170.667c16.683 16.683 43.648 16.683 60.331 0s16.683-43.648 0-60.331l-97.835-97.835h174.336c23.595 0 42.667-19.115 42.667-42.667 0-23.595-19.072-42.667-42.667-42.667h-174.336l97.835-97.835c16.683-16.683 16.683-43.648 0-60.331-8.32-8.32-19.243-12.501-30.165-12.501zM192 213.334c-10.923 0-21.845 4.181-30.165 12.501-16.683 16.683-16.683 43.648 0 60.331l97.835 97.835h-174.336c-23.552 0-42.667 19.072-42.667 42.667 0 23.552 19.115 42.667 42.667 42.667h174.336l-97.835 97.835c-16.683 16.683-16.683 43.648 0 60.331s43.648 16.683 60.331 0l170.667-170.667c4.096-4.096 7.211-8.875 9.301-13.909 2.048-4.949 3.2-10.411 3.2-16.128v0c0-0.085 0-0.171 0-0.256v0c0-5.717-1.152-11.179-3.2-16.128-2.091-5.077-5.205-9.771-9.301-13.909l-170.667-170.667c-8.32-8.32-19.243-12.501-30.165-12.501z" />
<glyph unicode="&#xe924;" glyph-name="align-horizontal-centre-02" d="M682.667 469.334h-341.333c-43.947 0-68.139 0-91.648 9.771-31.573 13.099-56.149 37.675-69.248 69.291-9.771 23.467-9.771 47.659-9.771 91.605s0 68.139 9.771 91.648c13.099 31.573 37.675 56.149 69.291 69.248 23.467 9.771 47.659 9.771 91.605 9.771h341.333c43.904 0 68.096 0 91.648-9.771 31.573-13.099 56.149-37.675 69.248-69.291 9.771-23.467 9.771-47.659 9.771-91.605s0-68.139-9.771-91.648c-13.099-31.573-37.675-56.149-69.248-69.248-23.552-9.771-47.744-9.771-91.648-9.771zM341.333 725.334c-30.805 0-51.157 0-58.965-3.243-10.539-4.395-18.731-12.587-23.125-23.125-3.243-7.808-3.243-28.16-3.243-58.965s0-51.157 3.243-58.965c4.395-10.581 12.544-18.731 23.125-23.125 7.808-3.243 28.16-3.243 58.965-3.243h341.333c30.805 0 51.157 0 59.008 3.243 10.496 4.352 18.688 12.544 23.083 23.125 3.243 7.808 3.243 28.16 3.243 58.965s0 51.157-3.243 58.965c-4.395 10.581-12.587 18.773-23.083 23.125-7.851 3.243-28.203 3.243-59.008 3.243h-341.333zM768 42.667h-512c-43.947 0-68.139 0-91.648 9.771-31.573 13.099-56.149 37.675-69.248 69.248-9.771 23.552-9.771 47.744-9.771 91.648s0 68.096 9.771 91.648c13.099 31.573 37.675 56.149 69.291 69.248 23.467 9.771 47.659 9.771 91.605 9.771h512c43.904 0 68.096 0 91.648-9.771 31.573-13.099 56.149-37.675 69.248-69.248 9.771-23.552 9.771-47.744 9.771-91.648s0-68.096-9.771-91.648c-13.099-31.573-37.675-56.149-69.248-69.248-23.552-9.771-47.744-9.771-91.648-9.771zM256 298.667c-30.805 0-51.157 0-58.965-3.243-10.581-4.395-18.773-12.587-23.125-23.083-3.243-7.851-3.243-28.203-3.243-59.008s0-51.157 3.243-59.008c4.352-10.496 12.544-18.688 23.125-23.083 7.808-3.243 28.16-3.243 58.965-3.243h512c30.805 0 51.157 0 59.008 3.243 10.539 4.395 18.688 12.544 23.083 23.083 3.243 7.851 3.243 28.203 3.243 59.008s0 51.157-3.243 59.008c-4.395 10.539-12.544 18.688-23.083 23.083-7.851 3.243-28.203 3.243-59.008 3.243h-512z" />
<glyph unicode="&#xe925;" glyph-name="align-justify" d="M896 128h-768c-23.552 0-42.667 19.072-42.667 42.667s19.115 42.667 42.667 42.667h768c23.595 0 42.667-19.072 42.667-42.667s-19.072-42.667-42.667-42.667zM896 298.667h-768c-23.552 0-42.667 19.072-42.667 42.667s19.115 42.667 42.667 42.667h768c23.595 0 42.667-19.072 42.667-42.667s-19.072-42.667-42.667-42.667zM896 469.334h-768c-23.552 0-42.667 19.115-42.667 42.667s19.115 42.667 42.667 42.667h768c23.595 0 42.667-19.115 42.667-42.667s-19.072-42.667-42.667-42.667zM896 640h-768c-23.552 0-42.667 19.115-42.667 42.667s19.115 42.667 42.667 42.667h768c23.595 0 42.667-19.115 42.667-42.667s-19.072-42.667-42.667-42.667z" />
<glyph unicode="&#xe926;" glyph-name="align-left" d="M682.667 128h-554.667c-23.552 0-42.667 19.072-42.667 42.667s19.115 42.667 42.667 42.667h554.667c23.595 0 42.667-19.072 42.667-42.667s-19.072-42.667-42.667-42.667zM853.333 298.667h-725.333c-23.552 0-42.667 19.072-42.667 42.667s19.115 42.667 42.667 42.667h725.333c23.595 0 42.667-19.072 42.667-42.667s-19.072-42.667-42.667-42.667zM682.667 469.334h-554.667c-23.552 0-42.667 19.115-42.667 42.667s19.115 42.667 42.667 42.667h554.667c23.595 0 42.667-19.115 42.667-42.667s-19.072-42.667-42.667-42.667zM853.333 640h-725.333c-23.552 0-42.667 19.115-42.667 42.667s19.115 42.667 42.667 42.667h725.333c23.595 0 42.667-19.115 42.667-42.667s-19.072-42.667-42.667-42.667z" />
<glyph unicode="&#xe927;" glyph-name="align-left-01" d="M128-0c-23.552 0-42.667 19.072-42.667 42.667v768c0 23.552 19.115 42.667 42.667 42.667s42.667-19.115 42.667-42.667v-768c0-23.595-19.115-42.667-42.667-42.667zM597.333 85.334c-10.923 0-21.845 4.181-30.165 12.501l-298.667 298.667c-4.096 4.139-7.211 8.832-9.301 13.909-2.048 4.949-3.2 10.411-3.2 16.128v0c0 0.085 0 0.171 0 0.256v0c0 5.717 1.152 11.179 3.2 16.128 2.091 5.077 5.205 9.813 9.301 13.909l298.667 298.667c16.683 16.683 43.648 16.683 60.331 0s16.683-43.648 0-60.331l-225.835-225.835h494.336c23.595 0 42.667-19.115 42.667-42.667 0-23.595-19.072-42.667-42.667-42.667h-494.336l225.835-225.835c16.683-16.683 16.683-43.648 0-60.331-8.32-8.32-19.243-12.501-30.165-12.501z" />
<glyph unicode="&#xe928;" glyph-name="align-left-02" d="M597.333 469.334h-341.333c-43.947 0-68.139 0-91.648 9.771-31.573 13.099-56.149 37.675-69.248 69.291-9.771 23.467-9.771 47.659-9.771 91.605s0 68.139 9.771 91.648c13.099 31.573 37.675 56.149 69.291 69.248 23.467 9.771 47.659 9.771 91.605 9.771h341.333c43.904 0 68.096 0 91.648-9.771 31.573-13.099 56.149-37.675 69.248-69.291 9.771-23.467 9.771-47.659 9.771-91.605s0-68.139-9.771-91.648c-13.099-31.573-37.675-56.149-69.248-69.248-23.552-9.771-47.744-9.771-91.648-9.771zM256 725.334c-30.805 0-51.157 0-58.965-3.243-10.539-4.395-18.731-12.587-23.125-23.125-3.243-7.808-3.243-28.16-3.243-58.965s0-51.157 3.243-58.965c4.395-10.581 12.544-18.731 23.125-23.125 7.808-3.243 28.16-3.243 58.965-3.243h341.333c30.805 0 51.157 0 59.008 3.243 10.496 4.352 18.688 12.544 23.083 23.125 3.243 7.808 3.243 28.16 3.243 58.965s0 51.157-3.243 58.965c-4.395 10.581-12.587 18.773-23.083 23.125-7.851 3.243-28.203 3.243-59.008 3.243h-341.333zM768 42.667h-512c-43.947 0-68.139 0-91.648 9.771-31.573 13.099-56.149 37.675-69.248 69.248-9.771 23.552-9.771 47.744-9.771 91.648s0 68.096 9.771 91.648c13.099 31.573 37.675 56.149 69.291 69.248 23.467 9.771 47.659 9.771 91.605 9.771h512c43.904 0 68.096 0 91.648-9.771 31.573-13.099 56.149-37.675 69.248-69.248 9.771-23.552 9.771-47.744 9.771-91.648s0-68.096-9.771-91.648c-13.099-31.573-37.675-56.149-69.248-69.248-23.552-9.771-47.744-9.771-91.648-9.771zM256 298.667c-30.805 0-51.157 0-58.965-3.243-10.581-4.395-18.773-12.587-23.125-23.083-3.243-7.851-3.243-28.203-3.243-59.008s0-51.157 3.243-59.008c4.352-10.496 12.544-18.688 23.125-23.083 7.808-3.243 28.16-3.243 58.965-3.243h512c30.805 0 51.157 0 59.008 3.243 10.539 4.395 18.688 12.544 23.083 23.083 3.243 7.851 3.243 28.203 3.243 59.008s0 51.157-3.243 59.008c-4.395 10.539-12.544 18.688-23.083 23.083-7.851 3.243-28.203 3.243-59.008 3.243h-512z" />
<glyph unicode="&#xe929;" glyph-name="align-right" d="M896 128h-554.667c-23.552 0-42.667 19.072-42.667 42.667s19.115 42.667 42.667 42.667h554.667c23.595 0 42.667-19.072 42.667-42.667s-19.072-42.667-42.667-42.667zM896 298.667h-725.333c-23.552 0-42.667 19.072-42.667 42.667s19.115 42.667 42.667 42.667h725.333c23.595 0 42.667-19.072 42.667-42.667s-19.072-42.667-42.667-42.667zM896 469.334h-554.667c-23.552 0-42.667 19.115-42.667 42.667s19.115 42.667 42.667 42.667h554.667c23.595 0 42.667-19.115 42.667-42.667s-19.072-42.667-42.667-42.667zM896 640h-725.333c-23.552 0-42.667 19.115-42.667 42.667s19.115 42.667 42.667 42.667h725.333c23.595 0 42.667-19.115 42.667-42.667s-19.072-42.667-42.667-42.667z" />
<glyph unicode="&#xe92a;" glyph-name="align-right-01" d="M896-0c-23.595 0-42.667 19.072-42.667 42.667v768c0 23.552 19.072 42.667 42.667 42.667s42.667-19.115 42.667-42.667v-768c0-23.595-19.072-42.667-42.667-42.667zM426.667 85.334c-10.923 0-21.845 4.181-30.165 12.501-16.683 16.683-16.683 43.648 0 60.331l225.835 225.835h-494.336c-23.552 0-42.667 19.072-42.667 42.667 0 23.552 19.115 42.667 42.667 42.667h494.336l-225.835 225.835c-16.683 16.683-16.683 43.648 0 60.331s43.648 16.683 60.331 0l298.667-298.667c4.139-4.096 7.211-8.875 9.301-13.909 2.048-4.949 3.2-10.411 3.2-16.128v0c0-0.085 0-0.171 0-0.256v0c0-5.717-1.152-11.179-3.2-16.128-2.091-5.077-5.163-9.771-9.301-13.909l-298.667-298.667c-8.32-8.32-19.243-12.501-30.165-12.501z" />
<glyph unicode="&#xe92b;" glyph-name="align-right-02" d="M768 469.334h-341.333c-43.947 0-68.139 0-91.648 9.771-31.573 13.099-56.149 37.675-69.248 69.291-9.771 23.467-9.771 47.659-9.771 91.605s0 68.139 9.771 91.648c13.099 31.573 37.675 56.149 69.291 69.248 23.467 9.771 47.659 9.771 91.605 9.771h341.333c43.904 0 68.096 0 91.648-9.771 31.573-13.099 56.149-37.675 69.248-69.291 9.771-23.467 9.771-47.659 9.771-91.605s0-68.139-9.771-91.648c-13.099-31.573-37.675-56.149-69.248-69.248-23.552-9.771-47.744-9.771-91.648-9.771zM426.667 725.334c-30.805 0-51.157 0-58.965-3.243-10.539-4.395-18.731-12.587-23.125-23.125-3.243-7.808-3.243-28.16-3.243-58.965s0-51.157 3.243-58.965c4.395-10.581 12.544-18.731 23.125-23.125 7.808-3.243 28.16-3.243 58.965-3.243h341.333c30.805 0 51.157 0 59.008 3.243 10.496 4.352 18.688 12.544 23.083 23.125 3.243 7.808 3.243 28.16 3.243 58.965s0 51.157-3.243 58.965c-4.395 10.581-12.587 18.773-23.083 23.125-7.851 3.243-28.203 3.243-59.008 3.243h-341.333zM768 42.667h-512c-43.947 0-68.139 0-91.648 9.771-31.573 13.099-56.149 37.675-69.248 69.248-9.771 23.552-9.771 47.744-9.771 91.648s0 68.096 9.771 91.648c13.099 31.573 37.675 56.149 69.291 69.248 23.467 9.771 47.659 9.771 91.605 9.771h512c43.904 0 68.096 0 91.648-9.771 31.573-13.099 56.149-37.675 69.248-69.248 9.771-23.552 9.771-47.744 9.771-91.648s0-68.096-9.771-91.648c-13.099-31.573-37.675-56.149-69.248-69.248-23.552-9.771-47.744-9.771-91.648-9.771zM256 298.667c-30.805 0-51.157 0-58.965-3.243-10.581-4.395-18.773-12.587-23.125-23.083-3.243-7.851-3.243-28.203-3.243-59.008s0-51.157 3.243-59.008c4.352-10.496 12.544-18.688 23.125-23.083 7.808-3.243 28.16-3.243 58.965-3.243h512c30.805 0 51.157 0 59.008 3.243 10.539 4.395 18.688 12.544 23.083 23.083 3.243 7.851 3.243 28.203 3.243 59.008s0 51.157-3.243 59.008c-4.395 10.539-12.544 18.688-23.083 23.083-7.851 3.243-28.203 3.243-59.008 3.243h-512z" />
<glyph unicode="&#xe92c;" glyph-name="align-top-01" d="M512-0c-23.552 0-42.667 19.072-42.667 42.667v494.336l-225.835-225.835c-16.683-16.683-43.648-16.683-60.331 0s-16.683 43.648 0 60.331l298.667 298.667c4.096 4.096 8.875 7.211 13.909 9.301 4.949 2.048 10.411 3.2 16.128 3.2v0c0.085 0 0.171 0 0.256 0v0c5.717 0 11.179-1.152 16.128-3.2 5.077-2.091 9.771-5.205 13.909-9.301l298.667-298.667c16.683-16.683 16.683-43.648 0-60.331s-43.648-16.683-60.331 0l-225.835 225.835v-494.336c0-23.595-19.072-42.667-42.667-42.667zM896 768h-768c-23.552 0-42.667 19.115-42.667 42.667s19.115 42.667 42.667 42.667h768c23.595 0 42.667-19.115 42.667-42.667s-19.072-42.667-42.667-42.667z" />
<glyph unicode="&#xe92d;" glyph-name="align-top-02" d="M298.667-0c-43.947 0-68.139 0-91.648 9.771-31.573 13.099-56.149 37.675-69.248 69.248-9.771 23.552-9.771 47.744-9.771 91.648v512c0 43.947 0 68.139 9.771 91.648 13.099 31.573 37.675 56.149 69.291 69.248 23.467 9.771 47.659 9.771 91.605 9.771s68.139 0 91.648-9.771c31.573-13.099 56.149-37.675 69.248-69.291 9.771-23.467 9.771-47.659 9.771-91.605v-512c0-43.904 0-68.096-9.771-91.648-13.099-31.573-37.675-56.149-69.291-69.248-23.467-9.771-47.659-9.771-91.605-9.771zM298.667 768c-30.805 0-51.157 0-58.965-3.243-10.539-4.395-18.731-12.587-23.125-23.125-3.243-7.808-3.243-28.16-3.243-58.965v-512c0-30.805 0-51.157 3.243-59.008 4.352-10.496 12.544-18.688 23.125-23.083 7.808-3.243 28.16-3.243 58.965-3.243s51.157 0 58.965 3.243c10.581 4.395 18.773 12.587 23.125 23.083 3.243 7.851 3.243 28.203 3.243 59.008v512c0 30.805 0 51.157-3.243 58.965-4.395 10.539-12.587 18.731-23.125 23.125-7.808 3.243-28.16 3.243-58.965 3.243zM725.333 170.667c-43.904 0-68.096 0-91.648 9.771-31.573 13.099-56.149 37.675-69.248 69.248-9.771 23.552-9.771 47.744-9.771 91.648v341.333c0 43.947 0 68.139 9.771 91.648 13.099 31.573 37.675 56.149 69.248 69.248 23.552 9.771 47.744 9.771 91.648 9.771s68.096 0 91.648-9.771c31.573-13.099 56.149-37.675 69.248-69.291 9.771-23.467 9.771-47.659 9.771-91.605v-341.333c0-43.904 0-68.096-9.771-91.648-13.099-31.573-37.675-56.149-69.248-69.248-23.552-9.771-47.744-9.771-91.648-9.771zM725.333 768c-30.805 0-51.157 0-59.008-3.243-10.496-4.352-18.688-12.544-23.083-23.125-3.243-7.808-3.243-28.16-3.243-58.965v-341.333c0-30.805 0-51.157 3.243-59.008 4.395-10.539 12.544-18.688 23.083-23.083 7.851-3.243 28.203-3.243 59.008-3.243s51.157 0 59.008 3.243c10.539 4.395 18.688 12.544 23.083 23.083 3.243 7.851 3.243 28.203 3.243 59.008v341.333c0 30.805 0 51.157-3.243 58.965-4.395 10.581-12.587 18.773-23.083 23.125-7.851 3.243-28.203 3.243-59.008 3.243z" />
<glyph unicode="&#xe92e;" glyph-name="align-vertical-center-01" d="M512-42.666c-23.552 0-42.667 19.072-42.667 42.667v174.336l-97.835-97.835c-16.683-16.683-43.648-16.683-60.331 0s-16.683 43.648 0 60.331l170.667 170.667c4.096 4.139 8.875 7.211 13.909 9.301 4.949 2.048 10.411 3.2 16.128 3.2v0c0.085 0 0.171 0 0.256 0v0c5.717 0 11.179-1.152 16.128-3.2 5.077-2.091 9.771-5.163 13.909-9.301l170.667-170.667c16.683-16.683 16.683-43.648 0-60.331s-43.648-16.683-60.331 0l-97.835 97.835v-174.336c0-23.595-19.072-42.667-42.667-42.667zM896 384h-768c-23.552 0-42.667 19.072-42.667 42.667 0 23.552 19.115 42.667 42.667 42.667h768c23.595 0 42.667-19.115 42.667-42.667 0-23.595-19.072-42.667-42.667-42.667zM512 533.334c-0.043 0-0.085 0-0.128 0v0c-5.717 0-11.179 1.152-16.128 3.2-5.077 2.091-9.813 5.205-13.909 9.301l-170.667 170.667c-16.683 16.683-16.683 43.648 0 60.331s43.648 16.683 60.331 0l97.835-97.835v174.336c0 23.552 19.115 42.667 42.667 42.667 23.595 0 42.667-19.115 42.667-42.667v-174.336l97.835 97.835c16.683 16.683 43.648 16.683 60.331 0s16.683-43.648 0-60.331l-170.667-170.667c-4.139-4.096-8.832-7.211-13.909-9.301-4.949-2.048-10.411-3.2-16.128-3.2v0c-0.043 0-0.085 0-0.128 0z" />
<glyph unicode="&#xe92f;" glyph-name="align-vertical-center-02" d="M298.667-0c-43.947 0-68.139 0-91.648 9.771-31.573 13.099-56.149 37.675-69.248 69.248-9.771 23.552-9.771 47.744-9.771 91.648v512c0 43.947 0 68.139 9.771 91.648 13.099 31.573 37.675 56.149 69.291 69.248 23.467 9.771 47.659 9.771 91.605 9.771s68.139 0 91.648-9.771c31.573-13.099 56.149-37.675 69.248-69.291 9.771-23.467 9.771-47.659 9.771-91.605v-512c0-43.904 0-68.096-9.771-91.648-13.099-31.573-37.675-56.149-69.291-69.248-23.467-9.771-47.659-9.771-91.605-9.771zM298.667 768c-30.805 0-51.157 0-58.965-3.243-10.539-4.395-18.731-12.587-23.125-23.125-3.243-7.808-3.243-28.16-3.243-58.965v-512c0-30.805 0-51.157 3.243-59.008 4.352-10.496 12.544-18.688 23.125-23.083 7.808-3.243 28.16-3.243 58.965-3.243s51.157 0 58.965 3.243c10.581 4.395 18.773 12.587 23.125 23.083 3.243 7.851 3.243 28.203 3.243 59.008v512c0 30.805 0 51.157-3.243 58.965-4.395 10.539-12.587 18.731-23.125 23.125-7.808 3.243-28.16 3.243-58.965 3.243zM725.333 85.334c-43.904 0-68.096 0-91.648 9.771-31.573 13.099-56.149 37.675-69.248 69.248-9.771 23.552-9.771 47.744-9.771 91.648v341.333c0 43.947 0 68.139 9.771 91.648 13.099 31.573 37.675 56.149 69.248 69.248 23.552 9.771 47.744 9.771 91.648 9.771s68.096 0 91.648-9.771c31.573-13.099 56.149-37.675 69.248-69.291 9.771-23.467 9.771-47.659 9.771-91.605v-341.333c0-43.904 0-68.096-9.771-91.648-13.099-31.573-37.675-56.149-69.248-69.248-23.552-9.771-47.744-9.771-91.648-9.771zM725.333 682.667c-30.805 0-51.157 0-59.008-3.243-10.496-4.352-18.688-12.544-23.083-23.125-3.243-7.808-3.243-28.16-3.243-58.965v-341.333c0-30.805 0-51.157 3.243-59.008 4.395-10.539 12.544-18.688 23.083-23.083 7.851-3.243 28.203-3.243 59.008-3.243s51.157 0 59.008 3.243c10.539 4.395 18.688 12.544 23.083 23.083 3.243 7.851 3.243 28.203 3.243 59.008v341.333c0 30.805 0 51.157-3.243 58.965-4.395 10.581-12.587 18.773-23.083 23.125-7.851 3.243-28.203 3.243-59.008 3.243z" />
<glyph unicode="&#xe930;" glyph-name="anchor" d="M512-42.666c-125.355 0-243.2 48.853-331.861 137.472-88.661 88.661-137.472 206.507-137.472 331.861 0 23.552 19.115 42.667 42.667 42.667h128c23.552 0 42.667-19.115 42.667-42.667 0-23.595-19.115-42.667-42.667-42.667h-82.987c9.515-86.4 47.787-166.443 110.165-228.864 62.379-62.379 142.421-100.608 228.864-110.123v515.029c-73.557 19.029-128.043 85.931-128.043 165.291 0 94.123 76.544 170.667 170.667 170.667s170.667-76.544 170.667-170.667c0-79.36-54.443-146.261-128-165.291v-515.072c86.4 9.515 166.443 47.744 228.864 110.123 62.379 62.421 100.608 142.464 110.123 228.864h-82.987c-23.595 0-42.667 19.072-42.667 42.667 0 23.552 19.072 42.667 42.667 42.667h128c23.595 0 42.667-19.115 42.667-42.667 0-125.355-48.853-243.2-137.472-331.861-88.661-88.576-206.507-137.429-331.861-137.429zM512 810.667c-47.061 0-85.333-38.272-85.333-85.333s38.272-85.333 85.333-85.333c47.061 0 85.333 38.272 85.333 85.333s-38.272 85.333-85.333 85.333z" />
<glyph unicode="&#xe931;" glyph-name="annotation" d="M511.957-28.416c-7.851 0-15.616 1.408-23.040 4.309-17.152 6.656-26.496 19.115-38.357 34.944l-62.293 83.029c-10.027 13.312-15.829 21.077-19.541 24.107-5.12 4.309-11.221 7.339-17.621 8.832-4.821 1.195-14.72 1.195-31.104 1.195-65.195 0-97.963 0-129.323 13.013-42.112 17.451-74.923 50.261-92.373 92.331-12.971 31.36-12.971 64.128-12.971 129.323v243.2c0 78.421 0 117.76 18.603 154.283 16.469 32.299 42.283 58.112 74.581 74.581 36.523 18.603 75.861 18.603 154.283 18.603h358.4c78.379 0 117.76 0 154.283-18.603 32.341-16.469 58.112-42.283 74.581-74.624 18.603-36.48 18.603-75.819 18.603-154.24v-243.2c0-65.195 0-97.963-13.013-129.323-17.451-42.069-50.261-74.88-92.331-92.331-31.36-13.013-64.128-13.013-129.323-13.013-16.384 0-26.283 0-31.147-1.152-6.357-1.493-12.416-4.48-17.451-8.747-3.755-3.115-9.515-10.752-19.029-23.424l-62.933-83.84c-11.776-15.787-21.12-28.288-38.187-34.901-7.595-2.944-15.445-4.352-23.296-4.352zM527.744 50.56v0zM332.8 768c-62.72 0-97.28 0-115.541-9.301-16.171-8.235-29.056-21.12-37.291-37.291-9.301-18.261-9.301-52.821-9.301-115.541v-243.2c0-52.224 0-80.939 6.485-96.683 8.704-21.035 25.131-37.419 46.208-46.165 15.701-6.485 44.416-6.485 96.64-6.485 23.381 0 36.267 0 50.773-3.456 19.2-4.48 37.376-13.611 52.565-26.283 11.349-9.429 19.413-20.181 32.768-38.016l55.893-74.453 55.467 73.899c13.952 18.603 21.973 29.227 33.28 38.613 15.061 12.587 33.237 21.675 52.48 26.24 14.549 3.456 27.435 3.456 50.773 3.456 52.224 0 80.939 0 96.683 6.485 20.736 8.576 37.589 25.429 46.165 46.165 6.485 15.744 6.485 44.459 6.485 96.683v243.2c0 62.72 0 97.28-9.301 115.541-8.235 16.171-21.12 29.056-37.291 37.291-18.304 9.301-52.821 9.301-115.541 9.301h-358.4z" />
<glyph unicode="&#xe932;" glyph-name="annotation-alert" d="M511.957-28.416c-7.851 0-15.616 1.408-23.040 4.309-17.152 6.656-26.496 19.115-38.357 34.944l-62.72 83.541c-9.6 12.843-15.403 20.565-19.115 23.637-5.12 4.309-11.221 7.339-17.621 8.832-4.821 1.152-14.72 1.152-31.104 1.152-65.195 0-97.963 0-129.323 13.013-42.112 17.451-74.923 50.261-92.373 92.331-12.971 31.36-12.971 64.128-12.971 129.323v243.2c0 78.421 0 117.76 18.603 154.283 16.469 32.299 42.283 58.112 74.581 74.581 36.523 18.603 75.861 18.603 154.283 18.603h358.4c78.379 0 117.76 0 154.283-18.603 32.341-16.469 58.112-42.283 74.581-74.624 18.603-36.48 18.603-75.819 18.603-154.24v-243.2c0-65.195 0-97.963-13.013-129.323-17.451-42.069-50.261-74.88-92.331-92.331-31.36-13.013-64.128-13.013-129.323-13.013-16.384 0-26.283 0-31.147-1.152-6.357-1.493-12.416-4.48-17.451-8.747-3.755-3.115-9.515-10.752-19.029-23.424l-62.933-83.84c-11.776-15.787-21.12-28.288-38.187-34.901-7.595-2.944-15.445-4.352-23.296-4.352zM456.533 145.024l55.467-73.899 55.467 73.899c13.952 18.603 21.973 29.227 33.28 38.613 15.061 12.587 33.237 21.675 52.48 26.24 14.549 3.456 27.435 3.456 50.773 3.456 52.224 0 80.939 0 96.683 6.485 20.736 8.576 37.589 25.429 46.165 46.165 6.485 15.744 6.485 44.459 6.485 96.683v243.2c0 62.72 0 97.28-9.301 115.541-8.235 16.171-21.12 29.056-37.291 37.291-18.304 9.301-52.821 9.301-115.541 9.301h-358.4c-62.72 0-97.28 0-115.541-9.301-16.171-8.235-29.056-21.12-37.291-37.291-9.301-18.261-9.301-52.821-9.301-115.541v-243.2c0-52.224 0-80.939 6.485-96.683 8.704-21.035 25.131-37.419 46.208-46.165 15.701-6.485 44.416-6.485 96.64-6.485 23.381 0 36.267 0 50.773-3.456 19.2-4.48 37.376-13.611 52.565-26.283 11.349-9.429 19.413-20.181 32.768-38.016l-33.707-26.112 34.133 25.557zM512.427 298.667c-23.552 0-42.88 19.072-42.88 42.667s18.901 42.667 42.453 42.667h0.427c23.595 0 42.667-19.072 42.667-42.667s-19.115-42.667-42.667-42.667zM512 448c-23.552 0-42.667 19.115-42.667 42.667v149.333c0 23.552 19.115 42.667 42.667 42.667 23.595 0 42.667-19.115 42.667-42.667v-149.333c0-23.552-19.072-42.667-42.667-42.667z" />
<glyph unicode="&#xe933;" glyph-name="annotation-check" d="M511.957-28.416c-7.851 0-15.616 1.408-23.040 4.309-17.152 6.656-26.496 19.115-38.357 34.944l-62.72 83.541c-9.6 12.843-15.403 20.565-19.115 23.637-5.12 4.309-11.221 7.339-17.621 8.832-4.821 1.152-14.72 1.152-31.104 1.152-65.195 0-97.963 0-129.323 13.013-42.112 17.451-74.923 50.261-92.373 92.331-12.971 31.36-12.971 64.128-12.971 129.323v243.2c0 78.421 0 117.76 18.603 154.283 16.469 32.299 42.283 58.112 74.581 74.581 36.523 18.603 75.861 18.603 154.283 18.603h358.4c78.379 0 117.76 0 154.283-18.603 32.341-16.469 58.112-42.283 74.581-74.624 18.603-36.48 18.603-75.819 18.603-154.24v-243.2c0-65.195 0-97.963-13.013-129.323-17.451-42.069-50.261-74.88-92.331-92.331-31.36-13.013-64.128-13.013-129.323-13.013-16.384 0-26.283 0-31.147-1.152-6.357-1.493-12.416-4.48-17.451-8.747-3.755-3.115-9.515-10.752-19.029-23.424l-62.933-83.84c-11.776-15.787-21.12-28.288-38.187-34.901-7.595-2.944-15.445-4.352-23.296-4.352zM456.533 145.024l55.467-73.899 55.467 73.899c13.952 18.603 21.973 29.227 33.28 38.613 15.061 12.587 33.237 21.675 52.48 26.24 14.549 3.456 27.435 3.456 50.773 3.456 52.224 0 80.939 0 96.683 6.485 20.736 8.576 37.589 25.429 46.165 46.165 6.485 15.744 6.485 44.459 6.485 96.683v243.2c0 62.72 0 97.28-9.301 115.541-8.235 16.171-21.12 29.056-37.291 37.291-18.304 9.301-52.821 9.301-115.541 9.301h-358.4c-62.72 0-97.28 0-115.541-9.301-16.171-8.235-29.056-21.12-37.291-37.291-9.301-18.261-9.301-52.821-9.301-115.541v-243.2c0-52.224 0-80.939 6.485-96.683 8.704-21.035 25.131-37.419 46.208-46.165 15.701-6.485 44.416-6.485 96.64-6.485 23.381 0 36.267 0 50.773-3.456 19.2-4.48 37.376-13.611 52.565-26.283 11.349-9.429 19.413-20.181 32.768-38.016l-33.707-26.112 34.133 25.557zM469.333 341.334c-10.923 0-21.845 4.181-30.165 12.501l-85.333 85.333c-16.683 16.683-16.683 43.648 0 60.331s43.648 16.683 60.331 0l55.168-55.168 161.835 161.835c16.683 16.683 43.648 16.683 60.331 0s16.683-43.648 0-60.331l-192-192c-8.32-8.32-19.243-12.501-30.165-12.501z" />
<glyph unicode="&#xe934;" glyph-name="annotation-dots" d="M511.957-28.416c-7.851 0-15.616 1.408-23.040 4.309-17.152 6.656-26.496 19.115-38.357 34.944l-62.72 83.541c-9.6 12.843-15.403 20.565-19.115 23.637-5.12 4.309-11.221 7.339-17.621 8.832-4.821 1.152-14.72 1.152-31.104 1.152-65.195 0-97.963 0-129.323 13.013-42.112 17.451-74.923 50.261-92.373 92.331-12.971 31.36-12.971 64.128-12.971 129.323v243.2c0 78.421 0 117.76 18.603 154.283 16.469 32.299 42.283 58.112 74.581 74.581 36.523 18.603 75.861 18.603 154.283 18.603h358.4c78.379 0 117.76 0 154.283-18.603 32.341-16.469 58.112-42.283 74.581-74.624 18.603-36.48 18.603-75.819 18.603-154.24v-243.2c0-65.195 0-97.963-13.013-129.323-17.451-42.069-50.261-74.88-92.331-92.331-31.36-13.013-64.128-13.013-129.323-13.013-16.384 0-26.283 0-31.147-1.152-6.357-1.493-12.416-4.48-17.451-8.747-3.755-3.115-9.515-10.752-19.029-23.424l-62.933-83.84c-11.776-15.787-21.12-28.288-38.187-34.901-7.595-2.944-15.445-4.352-23.296-4.352zM456.533 145.024l55.467-73.899 55.467 73.899c13.952 18.603 21.973 29.227 33.28 38.613 15.061 12.587 33.237 21.675 52.48 26.24 14.549 3.456 27.435 3.456 50.773 3.456 52.224 0 80.939 0 96.683 6.485 20.736 8.576 37.589 25.429 46.165 46.165 6.485 15.744 6.485 44.459 6.485 96.683v243.2c0 62.72 0 97.28-9.301 115.541-8.235 16.171-21.12 29.056-37.291 37.291-18.304 9.301-52.821 9.301-115.541 9.301h-358.4c-62.72 0-97.28 0-115.541-9.301-16.171-8.235-29.056-21.12-37.291-37.291-9.301-18.261-9.301-52.821-9.301-115.541v-243.2c0-52.224 0-80.939 6.485-96.683 8.704-21.035 25.131-37.419 46.208-46.165 15.701-6.485 44.416-6.485 96.64-6.485 23.381 0 36.267 0 50.773-3.456 19.2-4.48 37.376-13.611 52.565-26.283 11.349-9.429 19.413-20.181 32.768-38.016l-33.707-26.112 34.133 25.557zM704 426.667c-35.285 0-64 28.715-64 64s28.715 64 64 64 64-28.715 64-64-28.715-64-64-64zM512 426.667c-35.285 0-64 28.715-64 64s28.715 64 64 64 64-28.715 64-64-28.715-64-64-64zM320 426.667c-35.285 0-64 28.715-64 64s28.715 64 64 64 64-28.715 64-64-28.715-64-64-64z" />
<glyph unicode="&#xe935;" glyph-name="annotation-heart" d="M511.957-28.416c-7.851 0-15.616 1.408-23.040 4.309-17.152 6.656-26.496 19.115-38.357 34.944l-62.293 83.029c-10.027 13.312-15.829 21.077-19.541 24.107-5.12 4.309-11.221 7.339-17.621 8.832-4.821 1.195-14.72 1.195-31.104 1.195-65.195 0-97.963 0-129.323 13.013-42.112 17.451-74.923 50.261-92.373 92.331-12.971 31.36-12.971 64.128-12.971 129.323v243.2c0 78.421 0 117.76 18.603 154.283 16.469 32.299 42.283 58.112 74.581 74.581 36.523 18.603 75.861 18.603 154.283 18.603h358.4c78.379 0 117.76 0 154.283-18.603 32.341-16.469 58.112-42.283 74.581-74.624 18.603-36.48 18.603-75.819 18.603-154.24v-243.2c0-65.195 0-97.963-13.013-129.323-17.451-42.069-50.261-74.88-92.331-92.331-31.36-13.013-64.128-13.013-129.323-13.013-16.384 0-26.283 0-31.147-1.152-6.357-1.493-12.416-4.48-17.451-8.747-3.755-3.115-9.515-10.752-19.029-23.424l-62.933-83.84c-11.776-15.787-21.12-28.288-38.187-34.901-7.595-2.944-15.445-4.352-23.296-4.352zM527.744 50.56v0zM332.8 768c-62.72 0-97.28 0-115.541-9.301-16.171-8.235-29.056-21.12-37.291-37.291-9.301-18.261-9.301-52.821-9.301-115.541v-243.2c0-52.224 0-80.939 6.485-96.683 8.704-21.035 25.131-37.419 46.208-46.165 15.701-6.485 44.416-6.485 96.64-6.485 23.381 0 36.267 0 50.773-3.456 19.2-4.48 37.376-13.611 52.565-26.283 11.349-9.429 19.413-20.181 32.768-38.016l55.893-74.453 55.467 73.899c13.952 18.603 21.973 29.227 33.28 38.613 15.061 12.587 33.237 21.675 52.48 26.24 14.549 3.456 27.435 3.456 50.773 3.456 52.224 0 80.939 0 96.683 6.485 20.736 8.576 37.589 25.429 46.165 46.165 6.485 15.744 6.485 44.459 6.485 96.683v243.2c0 62.72 0 97.28-9.301 115.541-8.235 16.171-21.12 29.056-37.291 37.291-18.304 9.301-52.821 9.301-115.541 9.301h-358.4zM511.829 291.030c-8.235 0-16.469 1.152-24.277 3.456-18.261 5.461-29.995 15.915-47.787 31.659-55.552 49.152-92.629 85.248-110.208 107.264-48.085 60.203-38.784 146.432 21.291 196.352 47.403 39.381 111.147 41.472 161.152 9.301 49.579 31.488 112.981 29.44 160.469-8.917 60.971-49.237 70.485-135.637 21.76-196.693-22.059-27.563-72.149-73.557-110.336-107.307-17.024-15.147-29.355-26.112-47.531-31.573-7.936-2.347-16.256-3.541-24.533-3.541zM436.821 576.086c-10.453 0-21.291-3.541-31.488-11.989-24.704-20.523-28.544-53.12-9.088-77.397 13.909-17.408 50.432-52.651 100.139-96.64 6.869-6.101 14.592-12.971 17.152-14.421-0.768 1.451 6.955 8.277 13.739 14.336 49.707 43.989 86.229 79.232 100.309 96.768 19.328 24.235 15.616 57.387-8.747 77.056-26.923 21.76-57.728 10.795-74.923-8.704-16.299-18.475-47.872-18.432-64.085 0-10.667 12.075-26.368 20.992-43.008 20.992z" />
<glyph unicode="&#xe936;" glyph-name="annotation-info" d="M511.957-28.416c-7.851 0-15.616 1.408-23.040 4.309-17.152 6.656-26.496 19.115-38.357 34.944l-62.72 83.541c-9.6 12.843-15.403 20.565-19.115 23.637-5.12 4.309-11.221 7.339-17.621 8.832-4.821 1.152-14.72 1.152-31.104 1.152-65.195 0-97.963 0-129.323 13.013-42.112 17.451-74.923 50.261-92.373 92.331-12.971 31.36-12.971 64.128-12.971 129.323v243.2c0 78.421 0 117.76 18.603 154.283 16.469 32.299 42.283 58.112 74.581 74.581 36.523 18.603 75.861 18.603 154.283 18.603h358.4c78.379 0 117.76 0 154.283-18.603 32.341-16.469 58.112-42.283 74.581-74.624 18.603-36.48 18.603-75.819 18.603-154.24v-243.2c0-65.195 0-97.963-13.013-129.323-17.451-42.069-50.261-74.88-92.331-92.331-31.36-13.013-64.128-13.013-129.323-13.013-16.384 0-26.283 0-31.147-1.152-6.357-1.493-12.416-4.48-17.451-8.747-3.755-3.115-9.515-10.752-19.029-23.424l-62.933-83.84c-11.776-15.787-21.12-28.288-38.187-34.901-7.595-2.944-15.445-4.352-23.296-4.352zM456.533 145.024l55.467-73.899 55.467 73.899c13.952 18.603 21.973 29.227 33.28 38.613 15.061 12.587 33.237 21.675 52.48 26.24 14.549 3.456 27.435 3.456 50.773 3.456 52.224 0 80.939 0 96.683 6.485 20.736 8.576 37.589 25.429 46.165 46.165 6.485 15.744 6.485 44.459 6.485 96.683v243.2c0 62.72 0 97.28-9.301 115.541-8.235 16.171-21.12 29.056-37.291 37.291-18.304 9.301-52.821 9.301-115.541 9.301h-358.4c-62.72 0-97.28 0-115.541-9.301-16.171-8.235-29.056-21.12-37.291-37.291-9.301-18.261-9.301-52.821-9.301-115.541v-243.2c0-52.224 0-80.939 6.485-96.683 8.704-21.035 25.131-37.419 46.208-46.165 15.701-6.485 44.416-6.485 96.64-6.485 23.381 0 36.267 0 50.773-3.456 19.2-4.48 37.376-13.611 52.565-26.283 11.349-9.429 19.413-20.181 32.768-38.016l-33.707-26.112 34.133 25.557zM512 298.667c-23.552 0-42.667 19.072-42.667 42.667v149.333c0 23.552 19.115 42.667 42.667 42.667 23.595 0 42.667-19.115 42.667-42.667v-149.333c0-23.595-19.072-42.667-42.667-42.667zM512.427 597.334c-23.552 0-42.88 19.115-42.88 42.667s18.901 42.667 42.453 42.667h0.427c23.595 0 42.667-19.115 42.667-42.667s-19.115-42.667-42.667-42.667z" />
<glyph unicode="&#xe937;" glyph-name="annotation-plus" d="M511.957-28.416c-7.851 0-15.616 1.408-23.040 4.309-17.152 6.656-26.496 19.115-38.357 34.944l-62.72 83.541c-9.6 12.843-15.403 20.565-19.115 23.637-5.12 4.309-11.221 7.339-17.621 8.832-4.821 1.152-14.72 1.152-31.104 1.152-65.195 0-97.963 0-129.323 13.013-42.112 17.451-74.923 50.261-92.373 92.331-12.971 31.36-12.971 64.128-12.971 129.323v243.2c0 78.421 0 117.76 18.603 154.283 16.469 32.299 42.283 58.112 74.581 74.581 36.523 18.603 75.861 18.603 154.283 18.603h358.4c78.379 0 117.76 0 154.283-18.603 32.341-16.469 58.112-42.283 74.581-74.624 18.603-36.48 18.603-75.819 18.603-154.24v-243.2c0-65.195 0-97.963-13.013-129.323-17.451-42.069-50.261-74.88-92.331-92.331-31.36-13.013-64.128-13.013-129.323-13.013-16.384 0-26.283 0-31.147-1.152-6.357-1.493-12.416-4.48-17.451-8.747-3.755-3.115-9.515-10.752-19.029-23.424l-62.933-83.84c-11.776-15.787-21.12-28.288-38.187-34.901-7.595-2.944-15.445-4.352-23.296-4.352zM456.533 145.024l55.467-73.899 55.467 73.899c13.952 18.603 21.973 29.227 33.28 38.613 15.061 12.587 33.237 21.675 52.48 26.24 14.549 3.456 27.435 3.456 50.773 3.456 52.224 0 80.939 0 96.683 6.485 20.736 8.576 37.589 25.429 46.165 46.165 6.485 15.744 6.485 44.459 6.485 96.683v243.2c0 62.72 0 97.28-9.301 115.541-8.235 16.171-21.12 29.056-37.291 37.291-18.304 9.301-52.821 9.301-115.541 9.301h-358.4c-62.72 0-97.28 0-115.541-9.301-16.171-8.235-29.056-21.12-37.291-37.291-9.301-18.261-9.301-52.821-9.301-115.541v-243.2c0-52.224 0-80.939 6.485-96.683 8.704-21.035 25.131-37.419 46.208-46.165 15.701-6.485 44.416-6.485 96.64-6.485 23.381 0 36.267 0 50.773-3.456 19.2-4.48 37.376-13.611 52.565-26.283 11.349-9.429 19.413-20.181 32.768-38.016l-33.707-26.112 34.133 25.557zM512 320c-23.552 0-42.667 19.072-42.667 42.667v85.333h-85.333c-23.552 0-42.667 19.115-42.667 42.667s19.115 42.667 42.667 42.667h85.333v85.333c0 23.552 19.115 42.667 42.667 42.667 23.595 0 42.667-19.115 42.667-42.667v-85.333h85.333c23.595 0 42.667-19.115 42.667-42.667s-19.072-42.667-42.667-42.667h-85.333v-85.333c0-23.595-19.072-42.667-42.667-42.667z" />
<glyph unicode="&#xe938;" glyph-name="annotation-question" d="M511.957-28.416c-7.851 0-15.616 1.408-23.040 4.309-17.152 6.656-26.496 19.115-38.357 34.944l-62.72 83.541c-9.6 12.843-15.403 20.565-19.115 23.637-5.12 4.309-11.221 7.339-17.621 8.832-4.821 1.152-14.72 1.152-31.104 1.152-65.195 0-97.963 0-129.323 13.013-42.112 17.451-74.923 50.261-92.373 92.331-12.971 31.36-12.971 64.128-12.971 129.323v243.2c0 78.421 0 117.76 18.603 154.283 16.469 32.299 42.283 58.112 74.581 74.581 36.523 18.603 75.861 18.603 154.283 18.603h358.4c78.379 0 117.76 0 154.283-18.603 32.341-16.469 58.112-42.283 74.581-74.624 18.603-36.48 18.603-75.819 18.603-154.24v-243.2c0-65.195 0-97.963-13.013-129.323-17.451-42.069-50.261-74.88-92.331-92.331-31.36-13.013-64.128-13.013-129.323-13.013-16.384 0-26.283 0-31.147-1.152-6.357-1.493-12.416-4.48-17.451-8.747-3.755-3.115-9.515-10.752-19.029-23.424l-62.933-83.84c-11.776-15.787-21.12-28.288-38.187-34.901-7.595-2.944-15.445-4.352-23.296-4.352zM456.533 145.024l55.467-73.899 55.467 73.899c13.952 18.603 21.973 29.227 33.28 38.613 15.061 12.587 33.237 21.675 52.48 26.24 14.549 3.456 27.435 3.456 50.773 3.456 52.224 0 80.939 0 96.683 6.485 20.736 8.576 37.589 25.429 46.165 46.165 6.485 15.744 6.485 44.459 6.485 96.683v243.2c0 62.72 0 97.28-9.301 115.541-8.235 16.171-21.12 29.056-37.291 37.291-18.304 9.301-52.821 9.301-115.541 9.301h-358.4c-62.72 0-97.28 0-115.541-9.301-16.171-8.235-29.056-21.12-37.291-37.291-9.301-18.261-9.301-52.821-9.301-115.541v-243.2c0-52.224 0-80.939 6.485-96.683 8.704-21.035 25.131-37.419 46.208-46.165 15.701-6.485 44.416-6.485 96.64-6.485 23.381 0 36.267 0 50.773-3.456 19.2-4.48 37.376-13.611 52.565-26.283 11.349-9.429 19.413-20.181 32.768-38.016l-33.707-26.112 34.133 25.557zM518.827 277.334c-23.552 0-42.88 19.072-42.88 42.667s18.859 42.667 42.453 42.667h0.469c23.595 0 42.667-19.072 42.667-42.667s-19.115-42.667-42.709-42.667zM517.163 405.334c-17.877 0-34.517 11.307-40.491 29.184-7.467 22.357 4.608 46.507 26.965 53.973 23.211 7.893 66.731 32.341 66.731 55.467 0.043 12.629-4.437 24.832-12.544 34.475-8.021 9.6-19.328 16.043-31.701 18.176-12.416 2.048-25.088-0.213-35.968-6.571-10.837-6.357-19.115-16.427-23.253-28.288-7.808-22.229-32.213-33.877-54.4-26.069-22.229 7.808-33.877 32.171-26.069 54.4 10.837 30.848 32.341 56.917 60.544 73.515 28.16 16.555 61.44 22.613 93.611 17.109 32.256-5.504 61.568-22.315 82.645-47.36s32.597-56.789 32.555-89.472c0-91.947-112.299-132.053-125.099-136.32-4.523-1.493-9.045-2.219-13.525-2.219z" />
<glyph unicode="&#xe939;" glyph-name="annotation-x" d="M511.957-28.416c-7.851 0-15.616 1.408-23.040 4.309-17.152 6.656-26.496 19.115-38.357 34.944l-62.72 83.541c-9.6 12.843-15.403 20.565-19.115 23.637-5.12 4.309-11.221 7.339-17.621 8.832-4.821 1.152-14.72 1.152-31.104 1.152-65.195 0-97.963 0-129.323 13.013-42.112 17.451-74.923 50.261-92.373 92.331-12.971 31.36-12.971 64.128-12.971 129.323v243.2c0 78.421 0 117.76 18.603 154.283 16.469 32.299 42.283 58.112 74.581 74.581 36.523 18.603 75.861 18.603 154.283 18.603h358.4c78.379 0 117.76 0 154.283-18.603 32.341-16.469 58.112-42.283 74.581-74.624 18.603-36.48 18.603-75.819 18.603-154.24v-243.2c0-65.195 0-97.963-13.013-129.323-17.451-42.069-50.261-74.88-92.331-92.331-31.36-13.013-64.128-13.013-129.323-13.013-16.384 0-26.283 0-31.147-1.152-6.357-1.493-12.416-4.48-17.451-8.747-3.755-3.115-9.515-10.752-19.029-23.424l-62.933-83.84c-11.776-15.787-21.12-28.288-38.187-34.901-7.595-2.944-15.445-4.352-23.296-4.352zM456.533 145.024l55.467-73.899 55.467 73.899c13.952 18.603 21.973 29.227 33.28 38.613 15.061 12.587 33.237 21.675 52.48 26.24 14.549 3.456 27.435 3.456 50.773 3.456 52.224 0 80.939 0 96.683 6.485 20.736 8.576 37.589 25.429 46.165 46.165 6.485 15.744 6.485 44.459 6.485 96.683v243.2c0 62.72 0 97.28-9.301 115.541-8.235 16.171-21.12 29.056-37.291 37.291-18.304 9.301-52.821 9.301-115.541 9.301h-358.4c-62.72 0-97.28 0-115.541-9.301-16.171-8.235-29.056-21.12-37.291-37.291-9.301-18.261-9.301-52.821-9.301-115.541v-243.2c0-52.224 0-80.939 6.485-96.683 8.704-21.035 25.131-37.419 46.208-46.165 15.701-6.485 44.416-6.485 96.64-6.485 23.381 0 36.267 0 50.773-3.456 19.2-4.48 37.376-13.611 52.565-26.283 11.349-9.429 19.413-20.181 32.768-38.016l-33.707-26.112 34.133 25.557zM618.667 341.334c-10.923 0-21.845 4.181-30.165 12.501l-76.501 76.501-76.501-76.501c-16.683-16.683-43.648-16.683-60.331 0s-16.683 43.648 0 60.331l76.501 76.501-76.501 76.501c-16.683 16.683-16.683 43.648 0 60.331s43.648 16.683 60.331 0l76.501-76.501 76.501 76.501c16.683 16.683 43.648 16.683 60.331 0s16.683-43.648 0-60.331l-76.501-76.501 76.501-76.501c16.683-16.683 16.683-43.648 0-60.331-8.32-8.32-19.243-12.501-30.165-12.501z" />
<glyph unicode="&#xe93a;" glyph-name="announcement-01" d="M309.333-0c-12.117 0-18.176 0.128-23.253 0.64-60.501 6.016-108.843 54.272-114.773 114.816-0.512 4.992-0.64 11.093-0.64 23.211v139.221c-19.584 0.896-34.432 3.157-48.981 9.216-31.531 13.099-56.107 37.675-69.248 69.205-9.771 23.595-9.771 47.787-9.771 91.691v51.2c0 78.421 0 117.76 18.603 154.283 16.427 32.299 42.24 58.069 74.581 74.581 36.523 18.603 75.861 18.603 154.283 18.603h147.2c54.016 0 129.493 25.6 218.283 73.984 50.944 27.776 74.283 40.448 101.419 37.163 24.405-2.987 44.8-15.104 59.051-35.072 15.915-22.272 15.915-49.195 15.915-102.784v-415.915c0-53.632 0-80.555-15.915-102.784-14.208-19.925-34.645-32.043-59.008-34.987-27.563-3.456-50.603 9.387-101.504 37.12-83.115 45.269-154.539 70.571-207.573 73.643v-138.325c0-12.117-0.128-18.219-0.64-23.296-5.931-60.459-54.229-108.757-114.816-114.731-5.035-0.555-11.093-0.683-23.211-0.683zM309.333 85.334c7.723 0 11.563-0.213 14.763 0.213 20.267 2.005 36.395 18.091 38.357 38.229 0.341 3.328 0.213 7.168 0.213 14.891v181.333c0 23.595 19.115 42.667 42.667 42.667h32c69.12 0 156.288-28.373 259.115-84.395 19.029-10.368 38.571-21.035 49.109-25.429 1.067 10.624 1.067 31.147 1.067 51.157v415.957c0 20.011 0 40.533-1.067 51.2-10.539-4.395-30.080-15.061-49.109-25.429-102.741-55.979-189.909-84.395-259.115-84.395h-147.2c-62.72 0-97.28 0-115.541-9.301-16.171-8.235-29.056-21.12-37.291-37.291-9.301-18.261-9.301-52.821-9.301-115.541v-51.2c0-30.805 0-51.157 3.243-59.008 4.309-10.368 12.715-18.773 23.125-23.083 7.808-3.243 28.16-3.243 58.965-3.243 23.552 0 42.667-19.072 42.667-42.667v-181.333c0-7.723-0.128-11.563 0.213-14.805 1.963-20.267 18.091-36.352 38.272-38.315 3.285-0.341 7.125-0.213 14.848-0.213zM751.189 250.966v0 0zM751.232 773.078v0zM938.667 384c-23.595 0-42.667 19.072-42.667 42.667v170.667c0 23.552 19.072 42.667 42.667 42.667s42.667-19.115 42.667-42.667v-170.667c0-23.595-19.072-42.667-42.667-42.667z" />
<glyph unicode="&#xe93b;" glyph-name="announcement-02" d="M330.837-42.666c-9.643 0-14.421 0.085-18.731 0.469-50.859 4.181-94.336 38.144-110.72 86.485-1.28 3.797-2.517 8.235-4.651 16.853l-67.157 268.672c-52.992 43.051-86.912 108.757-86.912 182.187 0 129.408 105.259 234.667 234.667 234.667h160c54.016 0 129.493 25.6 218.283 73.984 50.944 27.776 74.283 40.448 101.419 37.163 24.405-2.987 44.8-15.104 59.051-35.072 15.915-22.272 15.915-49.195 15.915-102.784v-20.736c85.419-19.456 149.333-96 149.333-187.221s-63.915-167.765-149.333-187.221v-20.736c0-53.632 0-80.555-15.915-102.784-14.208-19.925-34.645-32.043-59.008-34.987-27.563-3.456-50.603 9.387-101.504 37.12-72.405 39.467-136.021 63.744-186.24 71.381v-178.901c0-11.861-0.085-17.792-0.597-22.827-5.931-60.843-54.315-109.227-115.072-115.029-4.864-0.555-10.837-0.683-22.827-0.683zM330.837 42.667c7.595 0 11.264-0.171 14.421 0.213 20.437 1.963 36.565 18.091 38.571 38.315 0.256 3.2 0.171 6.997 0.171 14.635v181.504h-106.667c-16.427 0-32.427 1.707-47.915 4.907l49.835-199.339c1.536-6.144 2.133-8.832 2.944-11.179 5.504-16.213 20.011-27.563 36.992-28.928 2.688-0.256 5.675-0.171 11.648-0.128zM751.189 250.966v0 0zM469.333 360.79c63.36-7.168 139.563-34.816 227.115-82.517 19.029-10.368 38.571-21.035 49.109-25.429 1.067 10.624 1.067 31.147 1.067 51.157v415.957c0 20.011 0 40.533-1.067 51.2-10.539-4.395-30.080-15.061-49.109-25.429-87.509-47.701-163.712-75.349-227.115-82.517v-302.421zM277.333 661.334c-82.347 0-149.333-66.987-149.333-149.333s66.987-149.333 149.333-149.333h106.667v298.667h-106.667zM832 609.75v-195.499c37.632 16.469 64 54.101 64 97.749s-26.368 81.28-64 97.749zM751.232 773.078v0z" />
<glyph unicode="&#xe93c;" glyph-name="announcement-03" d="M374.272-0h-76.032c-26.112 0-43.392 0-60.971 8.491-15.616 7.595-28.373 19.456-36.907 34.389-9.728 16.939-10.923 34.176-12.8 60.203l-15.915 222.805c-12.843 3.2-23.381 6.741-33.536 11.691-43.392 21.333-75.776 60.203-88.96 106.624-6.485 22.869-6.485 46.421-6.485 89.131s0 66.261 6.485 89.131c13.184 46.421 45.568 85.291 88.917 106.539 21.376 10.539 44.544 14.72 86.571 22.357l525.312 95.531c12.416 4.139 25.259 6.357 38.485 6.443 0.725 0 1.323 0 1.963 0 107.136-0.896 190.933-141.141 190.933-320 0-178.816-83.797-319.104-190.976-320-0.64 0-1.237 0-1.963 0-13.227 0.085-26.027 2.347-38.443 6.443l-276.651 50.304 11.605-150.613c2.347-30.635 3.755-49.067-4.992-68.736-7.595-17.195-20.992-31.616-37.589-40.533-18.859-10.197-37.376-10.197-68.053-10.197zM258.432 309.163l14.293-200.021c0.768-10.539 1.579-22.443 2.56-25.685 0.427 1.877 11.861 1.877 22.955 1.877h76.032c10.624 0 21.504 0 27.093 0.555 0.085 5.589-0.725 16.469-1.536 27.008l-13.312 172.971-128.085 23.296zM771.797 302.55l20.651-3.755c49.536 4.053 103.552 102.997 103.552 234.539s-54.016 230.485-103.552 234.539l-20.651-3.755c-45.056-19.669-89.131-111.915-89.131-230.784 0-118.827 44.075-211.115 89.131-230.784zM641.877 740.48l-402.005-73.088c-34.475-6.272-53.461-9.685-64.171-14.933-21.675-10.667-37.888-30.080-44.459-53.291-3.243-11.435-3.243-30.763-3.243-65.835s0-54.4 3.243-65.792c6.571-23.211 22.784-42.667 44.459-53.333 10.539-5.163 29.397-8.619 63.616-14.848l402.517-73.216c-27.861 55.467-44.501 127.488-44.501 207.189s16.64 151.723 44.544 207.147z" />
<glyph unicode="&#xe93d;" glyph-name="archive" d="M648.533-0h-273.067c-78.421 0-117.76 0-154.283 18.645-32.299 16.427-58.112 42.197-74.581 74.539-18.603 36.523-18.603 75.904-18.603 154.283v314.496c-42.24 14.848-73.941 50.816-82.859 95.744-2.475 12.373-2.475 24.405-2.475 46.293s0 33.92 2.475 46.336c10.112 50.944 49.579 90.411 100.565 100.523 12.373 2.475 24.405 2.475 46.293 2.475h640c21.931 0 33.963 0 46.336-2.475 50.901-10.112 90.368-49.579 100.523-100.523 2.475-12.459 2.475-24.491 2.475-46.336s0-33.877-2.432-46.208c-8.96-44.971-40.661-80.939-82.901-95.829v-314.496c0-78.379 0-117.76-18.603-154.283-16.469-32.341-42.24-58.112-74.624-74.581-36.48-18.603-75.861-18.603-154.24-18.603zM213.333 554.667v-307.2c0-62.72 0-97.237 9.301-115.541 8.235-16.171 21.12-29.056 37.248-37.248 18.304-9.344 52.864-9.344 115.584-9.344h273.067c62.72 0 97.237 0 115.541 9.344 16.171 8.192 29.056 21.077 37.248 37.205 9.344 18.347 9.344 52.864 9.344 115.584v307.2h-597.333zM174.208 640h675.584c0.811 0.043 1.579 0.085 2.432 0.128 3.968 0.085 6.827 0.171 9.429 0.683 17.024 3.413 30.165 16.555 33.579 33.536 0.768 4.096 0.768 14.251 0.768 29.653s0 25.557-0.853 29.739c-3.371 16.896-16.512 30.080-33.493 33.451-4.096 0.811-14.293 0.811-29.653 0.811h-640c-15.36 0-25.515 0-29.611-0.811-17.024-3.413-30.165-16.555-33.536-33.536-0.853-4.139-0.853-14.293-0.853-29.653s0-25.515 0.811-29.611c3.413-17.024 16.555-30.165 33.536-33.536 2.645-0.555 5.547-0.597 9.472-0.725 0.768-0.043 1.579-0.085 2.389-0.128zM597.333 341.334h-170.667c-23.552 0-42.667 19.072-42.667 42.667s19.115 42.667 42.667 42.667h170.667c23.595 0 42.667-19.072 42.667-42.667s-19.072-42.667-42.667-42.667z" />
<glyph unicode="&#xe93e;" glyph-name="arrow-block-down" d="M512-0c-10.923 0-21.845 4.181-30.165 12.501l-298.667 298.667c-12.203 12.203-15.872 30.549-9.259 46.507s22.187 26.325 39.424 26.325h128v392.533c0 15.104 0 28.203 7.040 41.899 6.101 12.032 15.829 21.76 27.989 27.904 13.568 6.997 26.624 6.997 41.771 6.997h187.733c15.147 0 28.245 0 41.941-7.040 11.947-6.059 21.675-15.744 27.861-27.947 6.997-13.611 6.997-26.667 6.997-41.813v-392.533h128c17.237 0 32.853-10.368 39.424-26.325 6.613-15.957 2.944-34.304-9.259-46.507l-298.667-298.667c-8.32-8.32-19.243-12.501-30.165-12.501zM316.331 298.667l195.669-195.669 195.669 195.669h-67.669c-23.595 0-42.667 19.072-42.667 42.667v426.667h-170.667v-426.667c0-23.595-19.115-42.667-42.667-42.667h-67.669z" />
<glyph unicode="&#xe93f;" glyph-name="arrow-block-left" d="M426.667 85.334c-11.093 0-22.016 4.352-30.165 12.501l-298.667 298.667c-16.683 16.683-16.683 43.648 0 60.331l298.667 298.667c12.203 12.245 30.507 15.872 46.507 9.259 15.915-6.613 26.325-22.187 26.325-39.424v-128h392.533c15.147 0 28.245 0 41.941-7.040 11.947-6.059 21.675-15.744 27.861-27.947 6.997-13.611 6.997-26.667 6.997-41.813v-187.733c0-15.147 0-28.245-7.040-41.941-6.059-11.989-15.787-21.76-28.032-27.904-13.483-6.955-26.539-6.955-41.728-6.955h-392.533v-128c0-17.237-10.411-32.853-26.325-39.424-5.291-2.219-10.837-3.243-16.341-3.243zM188.331 426.667l195.669-195.669v67.669c0 23.595 19.115 42.667 42.667 42.667h426.667v170.667h-426.667c-23.552 0-42.667 19.115-42.667 42.667v67.669l-195.669-195.669z" />
<glyph unicode="&#xe940;" glyph-name="arrow-block-right" d="M597.333 85.334c-5.504 0-11.051 1.024-16.341 3.243-15.957 6.571-26.325 22.187-26.325 39.424v128h-392.533c-15.104 0-28.203 0-41.899 6.997-12.075 6.187-21.803 15.872-27.947 28.075-6.955 13.483-6.955 26.539-6.955 41.728v187.733c0 15.104 0 28.203 7.040 41.899 6.101 12.032 15.829 21.76 27.989 27.904 13.568 6.997 26.624 6.997 41.771 6.997h392.533v128c0 17.237 10.368 32.811 26.325 39.424 15.957 6.571 34.304 2.944 46.507-9.259l298.667-298.667c16.683-16.683 16.683-43.648 0-60.331l-298.667-298.667c-8.149-8.149-19.072-12.501-30.165-12.501zM170.667 341.334h426.667c23.595 0 42.667-19.072 42.667-42.667v-67.669l195.669 195.669-195.669 195.669v-67.669c0-23.552-19.072-42.667-42.667-42.667h-426.667v-170.667z" />
<glyph unicode="&#xe941;" glyph-name="arrow-block-up" d="M605.867-0h-187.733c-15.104 0-28.203 0-41.899 6.997-12.075 6.187-21.803 15.872-27.947 28.075-6.955 13.483-6.955 26.539-6.955 41.728v392.533h-128c-17.237 0-32.811 10.411-39.424 26.325-6.613 15.957-2.944 34.304 9.259 46.507l298.667 298.667c16.683 16.683 43.648 16.683 60.331 0l298.667-298.667c12.203-12.203 15.872-30.549 9.259-46.507-6.571-15.915-22.187-26.325-39.424-26.325h-128v-392.533c0-15.147 0-28.245-7.040-41.941-6.059-11.989-15.787-21.76-28.032-27.904-13.483-6.955-26.539-6.955-41.728-6.955zM426.667 85.334h170.667v426.667c0 23.552 19.072 42.667 42.667 42.667h67.669l-195.669 195.669-195.669-195.669h67.669c23.552 0 42.667-19.115 42.667-42.667v-426.667z" />
<glyph unicode="&#xe942;" glyph-name="arrow-circle-broken-down" d="M512-42.666c-258.773 0-469.333 210.56-469.333 469.333 0 167.040 89.899 322.773 234.624 406.528 20.437 11.819 46.507 4.821 58.325-15.573 11.776-20.437 4.821-46.507-15.573-58.325-118.443-68.523-192.043-195.968-192.043-332.629 0-211.755 172.288-384 384-384 211.755 0 384 172.245 384 384 0 136.661-73.6 264.149-192.043 332.629-20.395 11.819-27.392 37.888-15.531 58.283 11.733 20.437 37.803 27.435 58.283 15.573 144.725-83.669 234.624-239.445 234.624-406.485 0-258.773-210.56-469.333-469.333-469.333zM512 213.334c-0.043 0-0.085 0-0.128 0v0c-5.717 0-11.179 1.152-16.128 3.2-5.077 2.091-9.813 5.163-13.909 9.301l-170.667 170.667c-16.683 16.683-16.683 43.648 0 60.331s43.648 16.683 60.331 0l97.835-97.835v494.336c0 23.552 19.115 42.667 42.667 42.667 23.595 0 42.667-19.115 42.667-42.667v-494.336l97.835 97.835c16.683 16.683 43.648 16.683 60.331 0s16.683-43.648 0-60.331l-170.667-170.667c-4.139-4.139-8.832-7.211-13.909-9.301-4.949-2.048-10.411-3.2-16.128-3.2v0c-0.043 0-0.085 0-0.128 0z" />
<glyph unicode="&#xe943;" glyph-name="arrow-circle-broken-down-left" d="M512-42.453c-120.192 0-240.384 45.739-331.861 137.259-182.997 182.997-182.997 480.725 0 663.723 118.144 118.144 291.968 164.565 453.376 121.557 22.784-6.101 36.309-29.44 30.208-52.224-6.059-22.827-29.653-36.267-52.224-30.208-132.395 35.285-274.432-2.859-371.029-99.456-149.717-149.717-149.717-393.344 0-543.061 149.717-149.675 393.344-149.76 543.104 0 96.64 96.683 134.741 238.805 99.413 370.987-6.101 22.784 7.424 46.165 30.208 52.267 22.528 6.016 46.123-7.467 52.224-30.208 43.179-161.536-3.371-335.232-121.515-453.376-91.52-91.52-211.712-137.259-331.904-137.259zM640 256h-256c-0.043 0-0.085 0-0.128 0v0c-5.76 0-11.264 1.152-16.256 3.243-4.864 2.048-9.429 4.992-13.44 8.875 0.043 0.043-0.043 0.043-0.085 0.085 0 0.043-0.043 0.043-0.043 0.085v0c-0.043 0.043-0.043 0.085-0.085 0.085 0 0-0.043 0.043-0.085 0.128v0c-0.043 0.043-0.043 0.043-0.085 0.085v0c0 0.128-0.128 0.128-0.085 0.128 0 0 0 0.128-0.085 0.085 0 0.043-0.043 0.043-0.043 0.085-3.883 3.968-6.827 8.491-8.832 13.312v0.043c-2.261 5.035-3.413 10.581-3.413 16.427v256c0 23.552 19.115 42.667 42.667 42.667s42.667-19.115 42.667-42.667v-153.003l353.835 353.835c16.683 16.683 43.648 16.683 60.331 0s16.683-43.648 0-60.331l-353.835-353.835h153.003c23.595 0 42.667-19.072 42.667-42.667s-19.072-42.667-42.667-42.667z" />
<glyph unicode="&#xe944;" glyph-name="arrow-circle-broken-down-right" d="M512-42.453c-120.192 0-240.384 45.739-331.861 137.259-118.101 118.144-164.693 291.84-121.557 453.333 6.101 22.784 29.483 36.309 52.224 30.208 22.784-6.101 36.309-29.483 30.208-52.224-35.328-132.224 2.773-274.389 99.413-371.029 149.76-149.76 393.344-149.76 543.104 0 149.717 149.717 149.717 393.344 0 543.061-96.597 96.64-238.763 134.741-371.029 99.456-22.827-6.101-46.123 7.467-52.224 30.251-6.059 22.784 7.467 46.123 30.251 52.224 161.621 43.136 335.275-3.456 453.333-121.557 182.997-182.997 182.997-480.725 0-663.723-91.477-91.52-211.669-137.259-331.861-137.259zM640 256h-256c-23.552 0-42.667 19.072-42.667 42.667s19.115 42.667 42.667 42.667h153.003l-353.835 353.835c-16.683 16.683-16.683 43.648 0 60.331s43.648 16.683 60.331 0l353.835-353.835v153.003c0 23.552 19.072 42.667 42.667 42.667s42.667-19.115 42.667-42.667v-256c0-0.043 0-0.085 0-0.128v0c0-5.717-1.152-11.179-3.2-16.128-2.091-5.077-5.163-9.771-9.301-13.909s-8.832-7.211-13.909-9.301c-4.949-2.048-10.411-3.2-16.128-3.2v0c-0.043 0-0.085 0-0.128 0z" />
<glyph unicode="&#xe945;" glyph-name="arrow-circle-broken-left" d="M512-42.666c-258.773 0-469.333 210.56-469.333 469.333s210.56 469.333 469.333 469.333c166.997 0 322.731-89.899 406.485-234.624 11.819-20.395 4.821-46.507-15.531-58.325-20.523-11.733-46.507-4.821-58.283 15.573-68.565 118.443-196.053 192.043-332.672 192.043-211.712 0-384-172.288-384-384 0-211.755 172.288-384 384-384 136.661 0 264.107 73.6 332.672 192.043 11.691 20.437 37.76 27.435 58.283 15.531 20.395-11.776 27.392-37.888 15.531-58.283-83.712-144.725-239.488-234.624-406.485-234.624zM512 213.334c-10.923 0-21.845 4.181-30.165 12.501l-170.667 170.667c-4.096 4.139-7.211 8.832-9.301 13.909-2.048 4.949-3.2 10.411-3.2 16.128v0c0 0.085 0 0.171 0 0.256v0c0 5.717 1.152 11.179 3.2 16.128 2.091 5.077 5.205 9.813 9.301 13.909l170.667 170.667c16.683 16.683 43.648 16.683 60.331 0s16.683-43.648 0-60.331l-97.835-97.835h494.336c23.595 0 42.667-19.115 42.667-42.667 0-23.595-19.072-42.667-42.667-42.667h-494.336l97.835-97.835c16.683-16.683 16.683-43.648 0-60.331-8.32-8.32-19.243-12.501-30.165-12.501z" />
<glyph unicode="&#xe946;" glyph-name="arrow-circle-broken-right" d="M512-42.666c-167.040 0-322.816 89.899-406.528 234.624-11.776 20.437-4.821 46.507 15.573 58.283 20.352 11.861 46.464 4.864 58.283-15.531 68.523-118.443 196.011-192.043 332.672-192.043 211.755 0 384 172.245 384 384 0 211.712-172.245 384-384 384-136.661 0-264.107-73.6-332.629-192.043-11.819-20.395-37.931-27.392-58.325-15.573s-27.349 37.888-15.573 58.325c83.755 144.725 239.488 234.624 406.528 234.624 258.773 0 469.333-210.56 469.333-469.333s-210.56-469.333-469.333-469.333zM512 213.334c-10.923 0-21.845 4.181-30.165 12.501-16.683 16.683-16.683 43.648 0 60.331l97.835 97.835h-494.336c-23.552 0-42.667 19.072-42.667 42.667 0 23.552 19.115 42.667 42.667 42.667h494.336l-97.835 97.835c-16.683 16.683-16.683 43.648 0 60.331s43.648 16.683 60.331 0l170.667-170.667c4.139-4.096 7.211-8.875 9.301-13.909 2.048-4.949 3.2-10.411 3.2-16.128v0c0-0.085 0-0.171 0-0.256v0c0-5.717-1.152-11.179-3.2-16.128-2.091-5.077-5.163-9.771-9.301-13.909l-170.667-170.667c-8.32-8.32-19.243-12.501-30.165-12.501z" />
<glyph unicode="&#xe947;" glyph-name="arrow-circle-broken-up" d="M512-42.666c-23.552 0-42.667 19.072-42.667 42.667v494.336l-97.835-97.835c-16.683-16.683-43.648-16.683-60.331 0s-16.683 43.648 0 60.331l170.667 170.667c4.096 4.096 8.875 7.211 13.909 9.301 4.949 2.048 10.411 3.2 16.128 3.2v0c0.085 0 0.171 0 0.256 0v0c5.717 0 11.179-1.152 16.128-3.2 5.077-2.091 9.771-5.205 13.909-9.301l170.667-170.667c16.683-16.683 16.683-43.648 0-60.331s-43.648-16.683-60.331 0l-97.835 97.835v-494.336c0-23.595-19.072-42.667-42.667-42.667zM725.376 14.422c-14.763 0-29.099 7.637-36.949 21.291-11.819 20.437-4.821 46.507 15.531 58.283 118.443 68.565 192.043 196.011 192.043 332.672 0 211.712-172.245 384-384 384-211.712 0-384-172.288-384-384 0-136.619 73.6-264.107 192.043-332.672 20.395-11.776 27.349-37.888 15.573-58.283-11.819-20.437-37.888-27.435-58.325-15.531-144.725 83.755-234.624 239.488-234.624 406.485 0 258.773 210.56 469.333 469.333 469.333s469.333-210.56 469.333-469.333c0-166.997-89.899-322.773-234.624-406.485-6.741-3.925-14.080-5.76-21.333-5.76z" />
<glyph unicode="&#xe948;" glyph-name="arrow-circle-broken-up-left" d="M512.768-42.538c-123.093 0-243.627 48.341-332.629 137.344-182.997 182.997-182.997 480.768 0 663.765 182.997 183.040 480.811 182.997 663.765 0 118.144-118.144 164.651-291.84 121.515-453.376-6.101-22.784-29.653-36.437-52.224-30.208-22.784 6.101-36.309 29.44-30.208 52.224 35.328 132.224-2.773 274.389-99.413 371.029-149.803 149.717-393.344 149.717-543.104 0-149.717-149.717-149.717-393.344 0-543.104 96.683-96.683 238.848-134.699 371.029-99.413 22.485 6.101 46.123-7.424 52.224-30.208 6.101-22.741-7.424-46.123-30.208-52.224-39.851-10.667-80.427-15.829-120.747-15.829zM810.667 85.334c-10.923 0-21.845 4.181-30.165 12.501l-353.835 353.835v-153.003c0-23.595-19.115-42.667-42.667-42.667s-42.667 19.072-42.667 42.667v256c0 5.845 1.195 11.435 3.328 16.512 0 0 0 0 0 0v0c1.877 4.523 4.608 8.789 8.149 12.544 0 0 0.043 0.085 0.043 0.085 0.64 0.725 1.28 1.365 1.963 1.963 0 0 0 0 0.085 0.043 3.755 3.541 8.021 6.229 12.544 8.149v0c0 0 0 0 0 0 5.12 2.176 10.709 3.371 16.555 3.371h256c23.595 0 42.667-19.115 42.667-42.667s-19.072-42.667-42.667-42.667h-153.003l353.835-353.835c16.683-16.683 16.683-43.648 0-60.331-8.32-8.32-19.243-12.501-30.165-12.501z" />
<glyph unicode="&#xe949;" glyph-name="arrow-circle-broken-up-right" d="M511.275-42.538c-40.32 0-80.896 5.163-120.789 15.829-22.741 6.101-36.309 29.44-30.208 52.224s29.397 36.437 52.267 30.208c132.309-35.328 274.389 2.773 370.987 99.413 149.717 149.76 149.717 393.344 0 543.104-149.803 149.717-393.344 149.717-543.104 0-96.64-96.683-134.741-238.848-99.413-371.029 6.101-22.741-7.467-46.123-30.208-52.224-22.741-6.144-46.165 7.424-52.224 30.208-43.136 161.493 3.456 335.232 121.557 453.333 182.997 183.040 480.811 182.997 663.765 0 182.997-182.997 182.997-480.768 0-663.765-89.003-88.917-209.536-137.301-332.629-137.301zM213.333 85.334c-10.923 0-21.845 4.181-30.165 12.501-16.683 16.683-16.683 43.648 0 60.331l353.835 353.835h-153.003c-23.552 0-42.667 19.115-42.667 42.667s19.115 42.667 42.667 42.667h256c5.845 0 11.392-1.152 16.427-3.285v0h0.043c4.821-2.005 9.387-4.949 13.312-8.832 0.043 0 0.043 0.043 0.085-0.085 0.043 0 0.085-0.043 0.085-0.043s-0.256 0.043 0.128-0.085v0c0.043-0.043 0.043-0.043 0.085-0.085v0c0.085-0.043 0.128-0.085 0.128-0.085s0.043-0.043 0.085-0.085v0c0.043 0-0.128 0.043 0.128-0.085 0 0 0-0.043 0.043-0.043 3.883-4.011 6.827-8.576 8.875-13.44 2.091-5.12 3.243-10.624 3.243-16.384v0c0-0.043 0-0.085 0-0.128v-256c0-23.595-19.072-42.667-42.667-42.667s-42.667 19.072-42.667 42.667v153.003l-353.835-353.835c-8.32-8.32-19.243-12.501-30.165-12.501z" />
</font>
</defs>
</svg>
