<?xml version="1.0" standalone="no"?>
<!DOCTYPE svg PUBLIC "-//W3C//DTD SVG 1.1//EN" "http://www.w3.org/Graphics/SVG/1.1/DTD/svg11.dtd" >
<svg xmlns="http://www.w3.org/2000/svg">
<metadata>Generated by IcoMoon</metadata>
<defs>
<font id="penguin-icons" horiz-adv-x="1024">
<font-face units-per-em="1024" ascent="960" descent="-64" />
<missing-glyph horiz-adv-x="1024" />
<glyph unicode="&#x20;" horiz-adv-x="512" d="" />
<glyph unicode="&#xe900;" glyph-name="wa-edit" d="M706.72 558.58c0.040-16.020-6.2-31.1-17.54-42.46l-23.68-23.84c-0.24-0.24-0.48-0.44-0.74-0.66l-23.040-23.040-109 109 23.62 23.62s0.060 0.060 0.080 0.1l23.72 23.84c11.34 11.34 26.38 17.58 42.34 17.58h0.14c15.94-0.040 30.9-6.28 42.1-17.6l24.48-24.48c11.28-11.16 17.52-26.12 17.56-42.080zM611.72 438.6l-158.96-158.9c-1.68-1.66-3.8-2.86-6.22-3.34l-114.72-22.88c-0.82-0.14-1.6-0.24-2.4-0.24-3.2 0-6.3 1.26-8.6 3.58-2.9 2.88-4.12 7-3.34 11l22.9 114.72c0.46 2.4 1.66 4.54 3.34 6.2v0s158.96 158.88 158.96 158.88l109.020-109z" />
<glyph unicode="&#xe901;" glyph-name="wa-more" d="M810.9 448c0-45.86-37.18-83.020-83.040-83.020s-83.020 37.16-83.020 83.020 37.18 83.020 83.020 83.020 83.040-37.16 83.040-83.020zM595.020 448c0-45.851-37.169-83.020-83.020-83.020s-83.020 37.169-83.020 83.020c0 45.851 37.169 83.020 83.020 83.020s83.020-37.169 83.020-83.020zM379.16 448c0-45.86-37.18-83.020-83.040-83.020s-83.020 37.16-83.020 83.020 37.18 83.020 83.020 83.020 83.040-37.16 83.040-83.020z" />
<glyph unicode="&#xe902;" glyph-name="wa-plus" d="M778.64 448c0-23.58-19.080-42.66-42.66-42.66h-181.34v-181.32c0-23.6-19.060-42.66-42.64-42.66-11.78 0-22.44 4.78-30.16 12.5-7.74 7.72-12.5 18.4-12.5 30.16v181.32h-181.32c-11.78 0-22.46 4.78-30.18 12.5s-12.48 18.4-12.48 30.16c0 23.58 19.060 42.66 42.66 42.66h181.32v181.32c0 23.6 19.060 42.66 42.66 42.66s42.64-19.060 42.64-42.66v-181.32h181.34c23.58 0 42.66-19.080 42.66-42.66z" />
<glyph unicode="&#xe903;" glyph-name="wa-reload" d="M758.72 389.6c-27.14-114.9-128.56-195.16-246.72-195.16-68.040 0-131.58 27.64-177.96 73.42l-29.24-29.24c-5.18-5.2-12.14-7.96-19.2-7.96-3.52 0-7.020 0.68-10.4 2.060-10.14 4.2-16.76 14.14-16.76 25.1v126.78c0 15 12.16 27.18 27.16 27.18h9.060c0.44 0 0.86 0.020 1.3 0h116.42c11.020 0 20.9-6.64 25.1-16.78 4.18-10.14 1.88-21.84-5.9-29.58l-59.16-59.16c36.42-35.84 86.22-57.48 139.58-57.48 92.8 0 172.54 63.020 193.8 153.28 3.48 14.6 18.28 23.56 32.66 20.22 14.6-3.44 23.66-18.080 20.26-32.68zM765.56 638.18v-126.78c0-15-12.16-27.18-27.16-27.18h-126.78c-11.020 0-20.9 6.64-25.12 16.78-4.16 10.14-1.88 21.84 5.92 29.58l59.14 59.16c-36.4 35.84-86.22 57.48-139.56 57.48-92.84 0-172.54-63.020-193.8-153.28-2.96-12.5-14.080-20.94-26.4-20.94-2.1 0-4.18 0.22-6.28 0.72-14.6 3.44-23.64 18.080-20.24 32.68 27.1 114.9 128.56 195.16 246.72 195.16 68.020 0 131.58-27.64 177.96-73.42l29.24 29.24c7.74 7.78 19.44 10.1 29.6 5.9 10.14-4.2 16.76-14.14 16.76-25.1z" />
<glyph unicode="&#xe904;" glyph-name="wa-remove" d="M700.54 319.78c16.68-16.68 16.68-43.64 0-60.32-8.32-8.32-19.24-12.5-30.16-12.5s-21.84 4.18-30.16 12.5l-128.22 128.22-128.22-128.22c-8.32-8.32-19.24-12.5-30.16-12.5s-21.84 4.18-30.16 12.5c-16.68 16.68-16.68 43.64 0 60.32l128.22 128.22-128.22 128.22c-16.68 16.68-16.68 43.64 0 60.32s43.64 16.68 60.32 0l128.22-128.22 128.22 128.22c16.68 16.68 43.64 16.68 60.32 0s16.68-43.64 0-60.32l-128.22-128.22 128.22-128.22z" />
<glyph unicode="&#xe905;" glyph-name="wa-copy" d="M683.7 710.22h-238.52c-49.9 0-90.52-40.62-90.52-90.52v-14.36h-14.36c-49.9 0-90.52-40.62-90.52-90.52v-238.52c0-49.92 40.62-90.52 90.52-90.52h238.52c45.84 0 83.44 34.4 89.32 78.66h15.56c49.92 0 90.52 40.62 90.52 90.52v264.74c0 49.9-40.62 90.52-90.52 90.52v0zM721.78 354.96c0-21-17.080-38.080-38.080-38.080h-14.36v197.92c0 49.9-40.62 90.52-90.52 90.52h-171.7v14.36c0 21 17.080 38.080 38.080 38.080h238.52c21 0 38.080-17.080 38.080-38.080v-264.74z" />
<glyph unicode="&#xe906;" glyph-name="wa-star" d="M811.96 538.2l-194.76 29.76-87.3 185.96c-6.52 13.88-29.3 13.88-35.82 0l-87.28-185.96-194.76-29.76c-16-2.46-22.38-21.92-11.16-33.4l141.5-145.040-33.44-205.040c-2.66-16.28 14.74-28.52 29.12-20.52l173.96 96.14 173.96-96.16c14.26-7.92 31.82 4.060 29.12 20.52l-33.44 205.040 141.5 145.040c11.22 11.5 4.8 30.96-11.16 33.42v0z" />
<glyph unicode="&#xe907;" glyph-name="wa-check" d="M756.92 620.9c-15.9 15.92-41.7 15.9-57.62 0l-259.32-259.34-115.26 115.26c-15.92 15.92-41.72 15.92-57.62 0-15.92-15.92-15.92-41.72 0-57.64l144.060-144.060c7.96-7.96 18.38-11.94 28.8-11.94s20.86 3.98 28.82 11.94l288.14 288.16c15.92 15.9 15.92 41.72 0 57.62z" />
<glyph unicode="&#xe908;" glyph-name="wa-question" d="M509.64 321.3h-0.34c-20.36 0.18-36.74 16.84-36.56 37.22l0.16 18.44c0 1.060 0.060 2.12 0.16 3.18 5.1 53.66 40.72 86.54 69.38 112.98 9.7 8.96 18.88 17.44 26.7 26.26 9.54 10.76 23.36 32.78 8.82 59.36-16.76 30.7-57.72 39.38-89.54 32.1-33.24-7.6-45.48-35.98-49.84-52.22-5.28-19.68-25.5-31.36-45.2-26.1-19.68 5.28-31.36 25.5-26.1 45.2 14.7 54.92 52.84 93.18 104.64 105.040 69.7 15.92 139.9-12.24 170.72-68.6 25.66-46.92 18.62-101.98-18.36-143.7-10.28-11.58-21.24-21.72-31.88-31.52-26.46-24.44-43.020-40.78-45.82-64.38l-0.14-16.66c-0.14-20.3-16.64-36.6-36.86-36.6v0zM509.62 208.84c-10.080 0-20.16 4.080-27.34 11.24-7.36 7.18-11.44 17.26-11.44 27.52s4.080 20.16 11.44 27.34c14.34 14.34 40.32 14.34 54.66 0 7.36-7.18 11.44-17.26 11.44-27.34s-4.080-20.16-11.24-27.52c-7.36-7.18-17.26-11.24-27.52-11.24v0z" />
<glyph unicode="&#xe909;" glyph-name="wa-question-circle-outilne" d="M509.64 321.3h-0.34c-20.36 0.18-36.74 16.84-36.56 37.22l0.16 18.44c0 1.060 0.060 2.12 0.16 3.18 5.1 53.66 40.72 86.54 69.38 112.98 9.7 8.96 18.88 17.44 26.7 26.26 9.54 10.76 23.36 32.78 8.82 59.36-16.76 30.7-57.72 39.38-89.54 32.1-33.24-7.6-45.48-35.98-49.84-52.22-5.28-19.68-25.5-31.36-45.2-26.1-19.68 5.28-31.36 25.5-26.1 45.2 14.7 54.92 52.84 93.18 104.64 105.040 69.7 15.92 139.9-12.24 170.72-68.6 25.66-46.92 18.62-101.98-18.36-143.7-10.28-11.58-21.24-21.72-31.88-31.52-26.46-24.44-43.020-40.78-45.82-64.38l-0.14-16.66c-0.14-20.3-16.64-36.6-36.86-36.6v0zM509.62 208.84c-10.080 0-20.16 4.080-27.34 11.24-7.36 7.18-11.44 17.26-11.44 27.52s4.080 20.16 11.44 27.34c14.34 14.34 40.32 14.34 54.66 0 7.36-7.18 11.44-17.26 11.44-27.34s-4.080-20.16-11.24-27.52c-7.36-7.18-17.26-11.24-27.52-11.24v0zM512 874.24c57.56 0 113.38-11.26 165.9-33.48 50.76-21.46 96.34-52.2 135.5-91.38 39.16-39.16 69.9-84.76 91.38-135.5 22.22-52.52 33.48-108.34 33.48-165.9s-11.26-113.38-33.48-165.9c-21.46-50.76-52.2-96.34-91.38-135.5s-84.76-69.9-135.5-91.38c-52.52-22.22-108.34-33.48-165.9-33.48s-113.38 11.26-165.9 33.48c-50.76 21.46-96.34 52.2-135.5 91.38-39.16 39.16-69.9 84.76-91.38 135.5-22.22 52.52-33.48 108.34-33.48 165.9s11.26 113.38 33.48 165.9c21.46 50.76 52.2 96.34 91.38 135.5 39.16 39.16 84.76 69.9 135.5 91.38 52.52 22.22 108.34 33.48 165.9 33.48zM512 930.24c-266.34 0-482.24-215.9-482.24-482.24s215.9-482.24 482.24-482.24 482.24 215.9 482.24 482.24-215.9 482.24-482.24 482.24v0z" />
<glyph unicode="&#xe90a;" glyph-name="wa-save" d="M647.020 687.040h-270.060c-23.8 0-44.020-19.2-44.020-44.020v-399.32c0.080-31.5 38.54-46.28 60.42-24.16l102.94 102.92c8.24 8.6 23.12 8.6 31.38 0l102.94-102.92c21.88-22.12 60.36-7.32 60.42 24.16v399.32c0 24.82-20.22 44.020-44.020 44.020v0z" />
<glyph unicode="&#xe90b;" glyph-name="wa-search" d="M766.7 240l-136.1 136.1c26.22 36.040 40.62 80.1 40.62 124.48 0 116.78-95.020 211.8-211.8 211.8s-211.8-95.020-211.8-211.8 95.020-211.8 211.8-211.8c44.38 0 88.44 14.4 124.48 40.62l136.1-136.1c6.24-6.24 14.54-9.68 23.36-9.68s17.12 3.44 23.36 9.68c6.24 6.24 9.68 14.54 9.68 23.36s-3.44 17.12-9.68 23.36zM605.16 500.58c0-80.36-65.38-145.74-145.74-145.74s-145.74 65.38-145.74 145.74 65.38 145.74 145.74 145.74 145.74-65.38 145.74-145.74z" />
<glyph unicode="&#xe90c;" glyph-name="wa-shopping-cart" d="M739.74 622.22c-12.52 15.020-31.080 23.7-50.64 23.68h-355.52l-0.92 7.72c-3.92 33.2-32.040 58.24-65.48 58.24h-4.88c-12.14 0-21.98-9.84-21.98-21.98s9.84-21.98 21.98-21.98h4.88c11.14 0 20.54-8.34 21.84-19.42l30.26-257.26c6.5-55.38 53.44-97.12 109.2-97.12h229.62c12.14 0 21.98 9.84 21.98 21.98s-9.84 21.98-21.98 21.98h-229.62c-27.88 0.080-52.72 17.68-62 43.98h262.1c53.2 0 98.76 38.080 108.2 90.44l17.26 95.74c3.48 19.24-1.74 39.020-14.3 54zM438.2 228.12c0-24.289-19.691-43.98-43.98-43.98s-43.98 19.691-43.98 43.98c0 24.289 19.691 43.98 43.98 43.98s43.98-19.691 43.98-43.98zM658.080 228.12c0-24.289-19.691-43.98-43.98-43.98s-43.98 19.691-43.98 43.98c0 24.289 19.691 43.98 43.98 43.98s43.98-19.691 43.98-43.98z" />
<glyph unicode="&#xe90d;" glyph-name="wa-upload" d="M685.74 223.36h-132.48v133.86h43.78c11.1 0 17.66 12.62 11.1 21.7l-85.16 117.84c-5.42 7.58-16.66 7.58-22.080 0l-85.16-117.84c-6.56-9.080-0.12-21.7 11.1-21.7h43.78v-133.86h-148.38c-66.24 3.66-118.98 65.6-118.98 132.72 0 46.3 25.1 86.68 62.32 108.5-3.4 9.22-5.18 19.060-5.18 29.4 0 47.32 38.22 85.54 85.54 85.54 10.22 0 20.060-1.76 29.28-5.18 27.38 58.040 86.42 98.28 155.060 98.28 88.82-0.12 162-68.14 170.32-154.8 68.26-11.74 120.12-74.94 120.12-146.48 0-76.46-59.56-142.7-135-148z" />
<glyph unicode="&#xe90e;" glyph-name="wa-credit-card" d="M667.58 664.32h-311.14c-61.34-0.080-111.040-49.78-111.12-111.12h533.4c-0.080 61.34-49.78 111.040-111.12 111.12zM245.3 375.4c0.080-61.34 49.78-111.040 111.12-111.12h311.14c61.34 0.080 111.040 49.78 111.12 111.12v133.34h-533.38v-133.34zM400.88 386.52c0-18.42-14.92-33.34-33.34-33.34s-33.34 14.92-33.34 33.34 14.92 33.34 33.34 33.34 33.34-14.92 33.34-33.34z" />
<glyph unicode="&#xe90f;" glyph-name="wa-expand" d="M456.12 427.26c-5.64 0-10.96 2.2-14.96 6.2-4 3.98-6.2 9.3-6.2 14.96v34.32h-34.32c-5.66 0-10.96 2.2-14.96 6.2s-6.2 9.3-6.2 14.96c0 11.66 9.48 21.16 21.16 21.16h34.32v34.32c0 11.66 9.48 21.16 21.16 21.16s21.14-9.48 21.14-21.16v-34.32h34.32c11.66 0 21.16-9.48 21.16-21.16s-9.48-21.16-21.16-21.16h-34.32v-34.32c0-11.66-9.48-21.16-21.14-21.16zM782.72 226.92l-144.66 144.66c27.86 38.3 43.18 85.14 43.18 132.3 0 124.14-100.98 225.12-225.12 225.12s-225.12-100.98-225.12-225.12 100.98-225.12 225.12-225.12c47.16 0 94 15.3 132.3 43.18l144.66-144.66c6.64-6.64 15.44-10.28 24.82-10.28s18.2 3.66 24.82 10.28c6.64 6.64 10.3 15.46 10.3 24.82 0 9.38-3.66 18.18-10.3 24.82zM611.020 503.88c0-85.42-69.48-154.9-154.9-154.9s-154.9 69.48-154.9 154.9 69.48 154.9 154.9 154.9 154.9-69.48 154.9-154.9z" />
<glyph unicode="&#xe910;" glyph-name="wa-eye" d="M778.26 466.44v0c-19.78 43.24-97.32 184.26-266.24 184.26s-246.48-141.020-266.24-184.26c-5.38-11.72-5.38-25.22 0-36.94 19.78-43.2 97.32-184.22 266.24-184.22s246.48 141.020 266.24 184.26c5.36 11.72 5.36 25.18 0 36.9zM512.020 312.86c-74.64 0-135.14 60.5-135.14 135.14s60.5 135.14 135.14 135.14 135.14-60.5 135.14-135.14c-0.080-74.6-60.54-135.060-135.14-135.14zM602.1 448c0-49.761-40.339-90.1-90.1-90.1s-90.1 40.339-90.1 90.1c0 49.761 40.339 90.1 90.1 90.1s90.1-40.339 90.1-90.1z" />
<glyph unicode="&#xe911;" glyph-name="wa-image-edit" d="M482.16 593.86c0-33.104-26.836-59.94-59.94-59.94s-59.94 26.836-59.94 59.94c0 33.104 26.836 59.94 59.94 59.94s59.94-26.836 59.94-59.94zM582.88 526.72c-9.6 9.6-23.98 9.6-33.58 0l-127.080-127.080-55.16 55.16c-9.6 9.6-23.98 9.6-33.58 0l-31.18-31.18v-153.46h139.080l199.020 199.020-57.54 57.54zM254.36 246.16v431.62c0 11.98 11.98 23.98 23.98 23.98h431.62c11.98 0 23.98-11.98 23.98-23.98v-131.88c14.38 4.8 31.18 9.6 47.96 9.6v122.3c0 40.76-31.18 71.94-71.94 71.94h-431.62c-40.76 0-71.94-31.18-71.94-71.94v-431.62c0-40.76 31.18-71.94 71.94-71.94h131.88l9.6 47.96h-141.48c-14.38 0-23.98 9.6-23.98 23.98zM851.44 483.56c-35.96 35.96-93.52 35.96-129.48 0l-11.98-11.98 129.48-129.48 11.98 11.98c35.96 35.96 35.96 93.52 0 129.48zM477.36 238.96c-2.4-2.4-4.8-7.2-7.2-11.98l-23.98-119.9c-2.4-7.2 0-16.78 7.2-21.58 4.8-4.8 14.38-7.2 21.58-7.2l119.9 23.98c4.8 0 9.6 2.4 11.98 7.2l199.020 199.020-129.48 129.48-199.020-199.020z" />
<glyph unicode="&#xe912;" glyph-name="wa-minus" d="M778.64 448c0-23.58-19.080-42.66-42.66-42.66h-447.96c-11.78 0-22.46 4.78-30.18 12.5s-12.48 18.4-12.48 30.16c0 23.58 19.060 42.66 42.66 42.66h447.96c23.58 0 42.66-19.080 42.66-42.66z" />
<glyph unicode="&#xe913;" glyph-name="wa-user-circe" d="M522.2 363.2c32.4 0 64 9.6 91 27.6s48 43.6 60.4 73.6c12.4 30 15.6 62.8 9.4 94.6-6.4 31.8-22 61-44.8 83.8-23 23-52 38.6-83.8 44.8-31.8 6.4-64.6 3-94.6-9.4s-55.6-33.4-73.6-60.4c-18-27-27.6-58.6-27.6-91 0-43.4 17.4-85 48-115.8 30.6-30.4 72.2-47.8 115.6-47.8zM522.2 636.2c21.6 0 42.8-6.4 60.6-18.4 18-12 32-29 40.2-49s10.4-42 6.2-63c-4.2-21.2-14.6-40.6-29.8-56-15.2-15.2-34.8-25.6-56-29.8s-43.2-2-63 6.2c-20 8.2-37 22.2-49 40.2s-18.4 39-18.4 60.6c0 29 11.6 56.8 32 77.2 20.6 20.4 48.2 32 77.2 32zM522.2 308.6c-65.2 0-127.6-26-173.6-72s-72-108.4-72-173.6c0-7.2 2.8-14.2 8-19.4s12-8 19.4-8c7.2 0 14.2 2.8 19.4 8s8 12 8 19.4c0 50.6 20.2 99.2 56 135.2 35.8 35.8 84.4 56 135.2 56 50.6 0 99.2-20.2 135.2-56 35.8-35.8 56-84.4 56-135.2 0-7.2 2.8-14.2 8-19.4s12-8 19.4-8 14.2 2.8 19.4 8c5.2 5.2 8 12 8 19.4 0 65.2-26 127.6-72 173.6-46.8 46-109.2 72-174.4 72zM512 873.8c57.6 0 113.2-11.2 165.8-33.4 50.6-21.4 96.2-52.2 135.4-91.2 39.2-39.2 69.8-84.6 91.2-135.4 22.2-52.4 33.4-108.2 33.4-165.8s-11.2-113.2-33.4-165.8c-21.4-50.6-52.2-96.2-91.2-135.4-39.2-39.2-84.6-69.8-135.4-91.2-52.4-22.2-108.2-33.4-165.8-33.4s-113.2 11.2-165.8 33.4c-50.6 21.4-96.2 52.2-135.4 91.2-39.2 39.2-69.8 84.6-91.2 135.4-22.2 52.4-33.4 108.2-33.4 165.8s11.2 113.2 33.4 165.8c21.4 50.6 52.2 96.2 91.2 135.4 39.2 39.2 84.6 69.8 135.4 91.2 52.6 22.2 108.2 33.4 165.8 33.4zM512 929.8c-266 0-481.8-215.8-481.8-481.8s215.8-481.8 481.8-481.8c266 0 481.8 215.6 481.8 481.8s-215.8 481.8-481.8 481.8v0z" />
</font>
</defs>
</svg>
