<?xml version="1.0" standalone="no"?>
<!DOCTYPE svg PUBLIC "-//W3C//DTD SVG 1.1//EN" "http://www.w3.org/Graphics/SVG/1.1/DTD/svg11.dtd" >
<svg xmlns="http://www.w3.org/2000/svg">
<metadata>Generated by IcoMoon</metadata>
<defs>
<font id="penguin-icons-api" horiz-adv-x="1024">
<font-face units-per-em="1024" ascent="960" descent="-64" />
<missing-glyph horiz-adv-x="1024" />
<glyph unicode="&#x20;" horiz-adv-x="512" d="" />
<glyph unicode="&#xe900;" glyph-name="check" d="M1003.947 797.44c-12.373 11.947-28.587 18.347-45.653 18.347s-33.28-6.4-45.653-18.773l-579.413-579.413c-4.693-4.693-10.667-7.253-17.493-7.253s-12.8 2.56-17.493 7.253l-187.733 187.733c-12.373 11.947-28.587 18.347-45.653 18.347-17.92 0-34.56-7.253-46.933-20.053-24.747-25.6-24.747-65.707 0-91.307l187.733-187.733c29.44-29.44 68.267-45.653 110.080-45.653s80.64 16.213 110.080 45.653l579.413 579.413c11.947 12.373 18.773 29.013 18.347 46.507 0 17.493-7.253 33.707-20.053 46.080z" />
<glyph unicode="&#xe901;" glyph-name="cross" d="M602.453 448l402.773 402.773c25.173 25.173 25.173 65.707 0 90.453-25.173 25.173-65.707 25.173-90.453 0v0l-402.773-402.773-402.773 402.773c-24.747 25.173-65.28 25.173-90.453 0s-25.173-65.707 0-90.453l402.773-402.773-402.773-402.773c-25.173-25.173-25.173-65.707 0-90.453s65.707-25.173 90.453 0l402.773 402.773 402.773-402.773c25.173-25.173 65.707-25.173 90.453 0 25.173 25.173 25.173 65.707 0 90.453l-402.773 402.773z" />
<glyph unicode="&#xe902;" glyph-name="upload" d="M767.147 655.36c-14.080 2.987-25.6 11.52-31.573 24.32-66.133 139.52-219.307 217.6-372.48 189.44-139.52-25.6-249.173-136.96-272.213-277.333-6.827-41.387-6.4-82.773 1.28-123.307 2.56-13.227-2.987-27.733-14.933-38.4-48.64-44.373-76.8-107.52-76.8-173.653 0-129.28 105.387-234.667 234.667-234.667h469.333c176.64 0 320 143.36 320 320 0 152.32-107.947 284.16-257.28 313.6v0zM293.973 435.627l115.627 115.627c16.64 16.64 38.4 24.747 59.733 24.747v0s0 0 0 0c21.76 0 43.52-8.533 59.733-24.747l115.627-115.627c16.64-16.64 16.64-43.52 0-60.16s-43.52-16.64-60.16 0l-72.96 72.96v-213.333c0-23.467-19.2-42.667-42.667-42.667s-42.667 19.2-42.667 42.667v213.333l-72.96-72.96c-16.64-16.64-43.52-16.64-60.16 0s-16.64 43.52 0 60.16v0z" />
<glyph unicode="&#xe903;" glyph-name="download" d="M767.147 655.36c-14.080 2.987-25.6 11.52-31.573 24.32-66.133 139.52-219.307 217.6-372.48 189.44-139.52-25.6-249.173-136.96-272.213-277.333-6.827-41.387-6.4-82.773 1.28-123.307 2.56-13.227-2.987-27.733-14.933-38.4-48.64-44.373-76.8-107.52-76.8-173.653 0-129.28 105.387-234.667 234.667-234.667h469.333c176.64 0 320 143.36 320 320 0 152.32-107.947 284.16-257.28 313.6v0zM645.547 332.8l-115.627-115.627c-16.64-16.64-38.4-24.747-59.733-24.747v0s0 0 0 0c-21.76 0-43.52 8.533-59.733 24.747l-115.627 115.627c-16.64 16.64-16.64 43.52 0 60.16s43.52 16.64 60.16 0l72.96-72.96v213.333c0 23.467 19.2 42.667 42.667 42.667s42.667-19.2 42.667-42.667v-213.333l72.96 72.96c16.64 16.64 43.52 16.64 60.16 0s16.64-43.52 0-60.16v0z" />
<glyph unicode="&#xe904;" glyph-name="edit" d="M50.347 145.067c-32.427-32-50.347-75.947-50.347-121.173v-87.893h87.893c45.227 0 89.173 17.92 121.173 50.347l571.307 571.307-158.72 158.72-571.307-571.307zM991.147 927.147c-43.947 43.947-114.773 43.947-158.72 0 0 0 0 0 0 0l-150.187-150.187 158.72-158.72 150.187 150.187c43.947 43.947 43.947 114.773 0 158.72 0 0 0 0 0 0z" />
<glyph unicode="&#xe905;" glyph-name="email" d="M1021.867 723.627l-359.253-359.253c-83.2-83.2-218.453-83.2-301.653 0l-358.827 359.253c-0.427-6.827-2.133-12.8-2.133-19.627v-512c0-117.76 95.573-213.333 213.333-213.333h597.333c117.76 0 213.333 95.573 213.333 213.333v512c0 6.827-1.28 12.8-2.133 19.627zM602.453 424.533l389.973 389.973c-38.4 63.573-107.093 102.827-181.76 102.827h-597.333c-74.24 0-143.36-39.253-181.76-102.827l389.547-389.973c49.92-49.92 130.987-49.92 180.907 0z" />
<glyph unicode="&#xe906;" glyph-name="eye" d="M682.667 448c0-94.257-76.41-170.667-170.667-170.667s-170.667 76.41-170.667 170.667c0 94.257 76.41 170.667 170.667 170.667s170.667-76.41 170.667-170.667zM992.853 558.080c-66.133 107.947-216.747 288.427-480.853 288.427s-414.72-180.48-480.853-288.427c-41.813-67.413-41.813-152.747 0-220.16 66.133-107.947 216.747-288.427 480.853-288.427s414.72 180.907 480.853 288.427c41.813 67.413 41.813 152.747 0 220.16zM512 192c-141.227 0-256 114.773-256 256s114.773 256 256 256 256-114.773 256-256c0-141.227-114.773-255.573-256-256z" />
<glyph unicode="&#xe907;" glyph-name="gear" d="M68.693 192c35.413-61.44 113.493-82.347 174.933-46.933 0 0 0 0 0 0l18.773 11.093c35.84-30.72 77.227-54.613 121.6-69.973v-21.76c0-70.827 57.173-128 128-128s128 57.173 128 128v21.76c44.373 15.787 85.76 39.68 121.6 70.4l19.2-11.093c61.44-35.413 139.52-14.507 174.933 46.933s14.507 139.52-46.933 174.933v0l-18.773 11.093c8.533 46.507 8.533 93.867 0 140.373l18.773 11.093c61.44 35.413 82.347 113.493 46.933 174.933s-113.493 82.347-174.933 46.933l-18.773-11.093c-35.84 30.72-77.227 54.187-121.6 69.973v21.76c0 70.827-57.173 128-128 128s-128-57.173-128-128v-21.76c-44.373-15.787-85.76-39.68-121.6-70.4l-19.2 11.093c-61.44 35.413-139.52 14.507-174.933-46.933s-14.507-139.52 46.933-174.933v0l18.773-11.093c-8.533-46.507-8.533-93.867 0-140.373l-18.773-11.093c-61.013-35.413-81.92-113.493-46.933-174.933zM512 618.667c94.293 0 170.667-76.373 170.667-170.667s-76.373-170.667-170.667-170.667-170.667 76.373-170.667 170.667 76.373 170.667 170.667 170.667z" />
<glyph unicode="&#xe908;" glyph-name="heart" d="M746.667 897.707c-97.707-1.707-187.307-55.040-234.667-140.8-47.36 85.333-136.96 139.093-234.667 140.8-159.147-6.827-283.307-141.227-277.333-300.373 0-194.133 204.373-405.76 375.467-549.547 78.933-66.133 194.133-66.133 273.067 0 171.093 143.787 375.467 355.413 375.467 549.12 5.973 159.573-117.76 293.547-277.333 300.8z" />
<glyph unicode="&#xe909;" glyph-name="home" d="M725.333 192.427v-256h170.667c70.827 0 128 57.173 128 128v389.12c0 22.187-8.533 43.52-23.893 59.307l-362.667 392.107c-64 69.12-171.947 73.387-241.067 9.387-3.413-2.987-6.4-6.4-9.387-9.387l-362.24-392.107c-15.787-15.787-24.747-37.547-24.747-60.16v-388.693c0-70.4 57.173-127.573 128-127.573h170.667v256c0.853 116.48 94.72 211.2 208.213 214.187 117.333 2.987 217.6-93.867 218.453-214.187zM512 320.427c-70.827 0-128-57.173-128-128v-256h256v256c0 70.827-57.173 128-128 128z" />
<glyph unicode="&#xe90a;" glyph-name="lightning" d="M480-66.133c-14.080 0-27.733 2.987-40.533 8.96-43.093 19.2-64.853 67.413-51.627 112.213l66.987 221.44h-157.44c-70.827 0-128.853 57.6-128.853 128.427 0 12.8 1.707 25.173 5.547 37.547l129.707 428.373c16.213 54.613 66.133 91.733 123.307 91.307h158.293c61.44 0 111.36-49.92 111.36-111.36 0-13.227-2.56-26.453-7.253-38.827l-72.107-192.427h109.653c70.827 0 128.427-57.6 128.427-128.427 0-25.6-7.68-50.773-22.187-72.107l-274.347-441.6c-17.067-26.88-46.933-43.52-78.933-43.52z" />
<glyph unicode="&#xe90b;" glyph-name="link" d="M337.067 272.64c-25.173 25.173-25.173 65.707 0 90.453 25.173 25.173 65.707 25.173 90.453 0 56.747-56.747 155.307-56.747 212.053 0l212.907 212.907c58.453 58.453 58.453 153.6 0 212.053s-153.6 58.453-212.053 0c-25.173-25.173-65.707-25.173-90.453 0-25.173 25.173-25.173 65.707 0 90.453 108.373 108.373 284.587 108.373 392.96 0s108.373-284.587 0-392.96l-212.907-212.907c-54.187-54.187-125.44-81.067-196.693-81.067s-142.507 27.307-196.693 81.067zM278.187-64c71.253 0 142.080 27.307 196.693 81.067 25.173 25.173 25.173 65.707 0 90.453-25.173 25.173-65.707 25.173-90.453 0-58.453-58.453-153.6-58.453-212.053 0s-58.453 153.6 0 212.053l211.627 211.627c58.453 58.453 153.6 58.453 212.053 0 25.173-25.173 65.707-25.173 90.453 0 25.173 25.173 25.173 65.707 0 90.453-108.373 108.373-284.587 108.373-392.96 0l-212.48-211.627c-108.373-108.373-108.373-284.587 0-392.96 54.187-54.187 125.44-81.067 196.693-81.067v0z" />
<glyph unicode="&#xe90c;" glyph-name="lock" d="M810.667 600.747v60.587c0 165.12-133.547 298.667-298.667 298.667s-298.667-133.547-298.667-298.667v-60.587c-77.653-33.707-128-110.507-128-195.413v-256c0-117.76 95.573-213.333 213.333-213.333h426.667c117.76 0 213.333 95.573 213.333 213.333v256c0 84.907-50.347 161.28-128 195.413zM554.667 234.667c0-23.467-19.2-42.667-42.667-42.667s-42.667 19.2-42.667 42.667v85.333c0 23.467 19.2 42.667 42.667 42.667s42.667-19.2 42.667-42.667v-85.333zM725.333 618.667h-426.667v42.667c0 117.76 95.573 213.333 213.333 213.333s213.333-95.573 213.333-213.333v-42.667z" />
<glyph unicode="&#xe90d;" glyph-name="minus" d="M960 384h-896c-35.413 0-64 28.587-64 64s28.587 64 64 64h896c35.413 0 64-28.587 64-64s-28.587-64-64-64z" />
<glyph unicode="&#xe90e;" glyph-name="next" d="M814.507 174.507l167.253 167.253c56.32 59.307 56.32 151.893 0 211.2l-167.253 167.253c-24.747 25.6-64.853 26.027-90.453 1.707s-26.027-64.853-1.707-90.453c0.427-0.427 0.853-0.853 1.707-1.707l118.613-118.613-778.667-0.853c-35.413 0-64-28.587-64-64v0c0-35.413 28.587-64 64-64l777.813 0.853-117.76-117.76c-24.747-25.6-23.893-66.133 1.707-90.453 24.747-23.893 64-23.893 88.747 0z" />
<glyph unicode="&#xe90f;" glyph-name="phone" d="M981.333 490.667c-23.467 0-42.667 19.2-42.667 42.667 0 188.587-153.173 341.76-341.76 341.76-23.467 0-42.667 19.2-42.667 42.667s18.773 43.093 42.667 43.093c235.947 0 427.093-191.573 427.093-427.093 0-23.467-19.2-42.667-42.667-42.667zM853.333 533.333c0 141.653-114.773 256.427-256.427 256.427-23.467 0-42.667-19.2-42.667-42.667s19.2-42.667 42.667-42.667c94.293 0 171.093-76.373 171.093-171.093 0-23.467 19.2-42.667 42.667-42.667s42.667 19.2 42.667 42.667zM946.773 13.653l38.827 44.8c51.627 51.627 51.627 135.253 0 186.88-1.28 1.28-104.107 80.213-104.107 80.213-51.2 48.64-131.84 48.64-183.040 0l-81.493-68.693c-134.4 55.467-241.067 162.133-296.107 296.533l68.267 81.067c49.067 51.2 49.067 131.84 0 183.040 0 0-79.36 102.827-80.64 104.107-50.773 51.2-133.12 52.053-184.747 2.133l-49.067-42.667c-290.133-336.64 334.933-957.013 682.667-945.92 70.827 0 139.093 27.733 189.013 78.507z" />
<glyph unicode="&#xe910;" glyph-name="plus" d="M960 512h-384v384c0 35.413-28.587 64-64 64s-64-28.587-64-64v-384h-384c-35.413 0-64-28.587-64-64s28.587-64 64-64h384v-384c0-35.413 28.587-64 64-64s64 28.587 64 64v384h384c35.413 0 64 28.587 64 64s-28.587 64-64 64z" />
<glyph unicode="&#xe911;" glyph-name="reload" d="M959.573 448.427c-32.427 0-59.733-24.32-64-56.747-30.72-211.2-226.987-357.12-438.187-326.4s-357.547 227.413-326.4 438.613c30.72 211.2 226.987 357.12 438.187 326.4 72.107-10.667 139.52-41.387 194.987-88.32l-48.64-48.64c-16.64-16.64-16.64-43.947 0-60.587 8.107-8.107 19.2-12.8 30.293-12.373h196.693c23.893 0 43.093 19.2 43.093 43.093v196.267c0 23.893-19.2 43.093-43.093 43.093-11.52 0-22.187-4.693-30.293-12.373l-57.173-57.173c-212.48 188.16-537.173 168.533-725.76-44.373-188.16-212.48-168.533-537.6 43.947-726.187 212.48-188.16 537.6-168.533 726.187 43.947 66.133 74.667 109.227 167.253 123.733 266.24 5.547 35.413-18.347 68.693-53.76 74.24-3.413 0.427-6.4 0.853-9.813 0.853z" />
<glyph unicode="&#xe912;" glyph-name="sparkle" d="M402.773 75.52l-124.587 248.747-249.173 124.587c-16.213 8.107-16.213 31.147 0 39.253l248.747 124.587 124.587 248.747c8.107 16.213 31.147 16.213 39.253 0l124.587-248.747 248.747-124.587c16.213-8.107 16.213-31.147 0-39.253l-248.747-124.587-124.587-248.747c-8.107-16.213-31.147-16.213-39.253 0zM777.813 46.507l49.493-98.987c6.827-14.080 27.307-14.080 34.133 0l49.493 98.987 98.987 49.493c14.080 6.827 14.080 27.307 0 34.133l-98.987 49.493-49.493 98.987c-6.827 14.080-27.307 14.080-34.133 0l-49.493-98.987-98.987-49.493c-14.080-6.827-14.080-27.307 0-34.133l98.987-49.493zM837.12 771.84l37.547-74.667c5.973-11.947 23.040-11.947 29.013 0l37.547 74.667 74.667 37.547c11.947 5.973 11.947 23.040 0 29.013l-74.667 37.547-37.547 74.667c-5.973 11.947-23.040 11.947-29.013 0l-37.547-74.667-74.667-37.547c-11.947-5.973-11.947-23.040 0-29.013l74.667-37.547z" />
<glyph unicode="&#xe913;" glyph-name="star" d="M996.693 593.92l-314.88 48.213-140.8 300.373c-10.667 22.613-47.36 22.613-58.027 0l-141.227-300.373-314.88-48.213c-26.027-3.84-36.267-35.413-17.92-53.76l228.693-234.24-54.187-331.52c-4.267-26.453 23.893-46.080 46.933-33.28l281.173 155.307 281.173-155.307c23.040-12.8 51.2 6.4 46.933 33.28l-54.187 331.52 228.693 234.24c17.92 18.773 7.68 49.92-17.92 54.187v0z" />
<glyph unicode="&#xe914;" glyph-name="trash" d="M896 789.333h-132.267c-20.48 99.413-107.52 170.667-209.067 170.667h-85.333c-101.547 0-188.587-71.253-209.067-170.667h-132.267c-23.467 0-42.667-19.2-42.667-42.667s19.2-42.667 42.667-42.667h42.667v-554.667c0-117.76 95.573-213.333 213.333-213.333h256c117.76 0 213.333 95.573 213.333 213.333v554.667h42.667c23.467 0 42.667 19.2 42.667 42.667s-19.2 42.667-42.667 42.667zM469.333 234.667c0-23.467-19.2-42.667-42.667-42.667s-42.667 19.2-42.667 42.667v256c0 23.467 19.2 42.667 42.667 42.667s42.667-19.2 42.667-42.667v-256zM640 234.667c0-23.467-19.2-42.667-42.667-42.667s-42.667 19.2-42.667 42.667v256c0 23.467 19.2 42.667 42.667 42.667s42.667-19.2 42.667-42.667v-256zM348.587 789.333c18.347 51.2 66.56 85.333 120.747 85.333h85.333c54.187 0 102.4-34.133 120.747-85.333h-326.827z" />
<glyph unicode="&#xe915;" glyph-name="unlock" d="M725.333 618.667h-426.667v42.667c0 117.76 95.573 213.333 213.333 213.333 77.653 0 149.333-42.24 186.88-110.080 11.52-20.48 37.547-28.16 58.027-16.64s28.16 37.547 16.64 58.027c-80.213 144.213-261.973 196.693-406.187 116.48-95.147-52.48-154.027-152.747-154.027-261.547v-60.587c-77.653-33.707-128-110.507-128-195.413v-256c0-117.76 95.573-213.333 213.333-213.333h426.667c117.76 0 213.333 95.573 213.333 213.333v256c0 117.76-95.573 213.333-213.333 213.333zM554.667 234.667c0-23.467-19.2-42.667-42.667-42.667s-42.667 19.2-42.667 42.667v85.333c0 23.467 19.2 42.667 42.667 42.667s42.667-19.2 42.667-42.667v-85.333z" />
<glyph unicode="&#xe916;" glyph-name="back" d="M209.493 721.493l-167.253-167.253c-56.32-59.307-56.32-151.893 0-211.2l167.253-167.253c24.747-25.6 64.853-26.027 90.453-1.707s26.027 64.853 1.707 90.453c-0.427 0.427-0.853 0.853-1.707 1.707l-118.613 118.613 778.667 0.853c35.413 0 64 28.587 64 64v0c0 35.413-28.587 64-64 64l-777.813-0.853 117.76 117.76c24.747 25.6 23.893 66.133-1.707 90.453-24.747 23.893-64 23.893-88.747 0z" />
<glyph unicode="&#xe917;" glyph-name="user" d="M768 704c0-141.385-114.615-256-256-256s-256 114.615-256 256c0 141.385 114.615 256 256 256s256-114.615 256-256zM512 362.667c-212.053 0-383.573-171.947-384-384 0-23.467 19.2-42.667 42.667-42.667h682.667c23.467 0 42.667 19.2 42.667 42.667 0 212.053-171.947 383.573-384 384z" />
<glyph unicode="&#xe918;" glyph-name="users" d="M512 277.333c-94.293 0-170.667 76.373-170.667 170.667s76.373 170.667 170.667 170.667 170.667-76.373 170.667-170.667-76.373-170.667-170.667-170.667zM242.347 277.333h-199.68c-23.467 0-42.667 19.2-42.667 42.667 0.853 126.72 93.867 233.813 218.88 252.587 23.467 3.413 44.8-12.8 48.213-36.267 0.853-5.973 0-11.947-1.28-17.493-6.4-23.040-9.813-46.507-9.813-70.4 0-37.973 8.533-75.52 25.173-109.653 10.24-21.333 1.28-46.933-20.053-56.747-5.547-2.56-11.947-4.267-18.347-4.267v0zM725.333-64h-426.667c-23.467 0-42.667 19.2-42.667 42.667 0 141.227 114.773 256 256 256s256-114.773 256-256c0-23.467-19.2-42.667-42.667-42.667zM768 618.667c-94.293 0-170.667 76.373-170.667 170.667s76.373 170.667 170.667 170.667 170.667-76.373 170.667-170.667-76.373-170.667-170.667-170.667zM256 618.667c-94.293 0-170.667 76.373-170.667 170.667s76.373 170.667 170.667 170.667 170.667-76.373 170.667-170.667-76.373-170.667-170.667-170.667zM981.333 277.333h-199.68c-23.467 0-42.667 19.2-42.667 42.667 0 6.4 1.28 12.373 4.267 18.347 16.213 34.133 24.747 71.68 24.747 109.653 0 23.893-3.413 47.36-10.24 70.4-6.4 22.613 6.4 46.080 29.013 52.907 5.973 1.707 11.947 2.133 17.92 1.28 125.013-18.773 218.027-125.867 218.88-252.587 0-23.467-19.2-42.667-42.667-42.667z" />
</font>
</defs>
</svg>
